Welcome Guest ( Log In | Register )

Объявления

* gmail.com упорно продолжает считать почту с нас "unsolicited" и отбивает в том числе и письма активации, поэтому просьба использовать альтернативные почтовые ящики.
------------
* gmail.com continues reject all mail from us as "unsolicited" (activation mails too) therefore please use alternate mail servers.
> Soen - Memorial (2023), Progressive Metal (D8)
post Aug 30 2023, 20:58:36
Post #1

Правь статус, ####!111
**************
Group: Металариец
Posts: 35,941
Releases: 26785
From: Г.Харьков
On Forums: 12 years 2 weeks
Thanks: 581057 time(s)
Ukraine


(IMG:https://metalarea.org/images/audiocovers/2023_Aug/acov_tid385617_thumb.jpg)

*Artist: Soen
*Album: Memorial
*Year: 2023
*Genre: Progressive Metal
*Country: Sweden (IMG:https://metalarea.org/forum/style_images/flags/Sweden.png)
*Format: mp3@VBR265kbps
*Size: 83MB

Tracklist:
01. Sincere 04:35
02. Unbreakable 04:12
03. Violence 03:55
04. Fortress 04:03
05. Hollowed 04:08
06. Memorial 04:38
07. Incendiary 04:33
08. Tragedian 03:40
09. Icon 04:10
10. Vitals 05:02
******************************
Total playing time: 42:56



Extended info
CD-Rip



Technical info
(IMG:https://metalarea.org/images/spectrogram/2023_Aug/d53d497f66ae2bb7daadc120b025ecc5.png)
Input File: 07-soen_-_incendiary.mp3
Channels : 2
Sample Rate : 44100
Precision : 16-bit
Duration : 00:04:33.82 = 12075242 samples = 20536.1 CDDA sectors
File Size : 9.11M
Bit Rate : 266k
Sample Encoding: MPEG audio (layer I, II or III)
Comments :
Title=Incendiary
Artist=Soen
Album=Memorial
Tracknumber=7/10
Year=2023
Genre=AlternRock



Register


Go to the top of the page
  Insert nick Quick quote
+Quote Post
 
Start new topic
Replies (1 - 8)
post Aug 30 2023, 21:35:19
Post #2

Правдоруб)
**************
Group: Металариец
Posts: 3,062
Releases: 1
From: Украина, Днепр
On Forums: 10 years 11 months
Thanks: 2512 time(s)
Ukraine


Ждал. Люблю их послушать, расслабиться, отвлечься от всего...
Go to the top of the page
  Insert nick Quick quote
+Quote Post
post Aug 30 2023, 22:28:29
Post #3

Правь статус, ####!111
**************
Group: Металариец
Posts: 55,976
Releases: 1200
On Forums: 14 years 11 months
Thanks: 54815 time(s)
Russian Federation


ЦИТАТА(BleedingSun @ Aug 30 2023, 23:35:19) *
расслабиться, отвлечься от всего...


Этим и ценна терапеффтическая суть прожика (и других качественных поджанров музлишшка) да и вообще искусства как такового (IMG:style_emoticons/default/bye.gif)


Thanks:
Go to the top of the page
  Insert nick Quick quote
+Quote Post
post Aug 30 2023, 23:12:22
Post #4

Три Литра
***
Group: Завсегдатай
Posts: 205
Releases: 0
From: Москва
On Forums: 17 years 8 months
Thanks: 61 time(s)
Russian Federation


На ночь глядя, самое то послушать!
Go to the top of the page
  Insert nick Quick quote
+Quote Post
post Aug 31 2023, 07:22:26
Post #5

Восемь Литров
********
Group: Металариец
Posts: 875
Releases: 0
On Forums: 17 years 5 months
Thanks: 123 time(s)
Russian Federation


Когда будет 320?
Go to the top of the page
  Insert nick Quick quote
+Quote Post
post Aug 31 2023, 08:17:35
Post #6

21st Century Schizoid Man
**************
Group: Металариец
Posts: 8,447
Releases: 317
From: 1984
On Forums: 16 years 3 weeks
Thanks: 9400 time(s)
Unknown


Register


Thanks:
(1) Dante_D,
Go to the top of the page
  Insert nick Quick quote
+Quote Post
post Aug 31 2023, 12:01:05
Post #7

Правь статус, ####!111
**************
Group: Металариец
Posts: 55,976
Releases: 1200
On Forums: 14 years 11 months
Thanks: 54815 time(s)
Russian Federation


Yarri Сампо пока фуррычит и то гуд.
Go to the top of the page
  Insert nick Quick quote
+Quote Post
post Aug 31 2023, 13:06:48
Post #8

Правь статус, ####!111
**************
Group: Металариец
Posts: 35,941
Releases: 26785
From: Г.Харьков
On Forums: 12 years 2 weeks
Thanks: 581057 time(s)
Ukraine


320 98 mb
Register


Go to the top of the page
  Insert nick Quick quote
+Quote Post
post Sep 1 2023, 08:49:32
Post #9

к приему виски готов
*********
Group: Металариец
Posts: 957
Releases: 3
From: Украина
On Forums: 15 years 3 months
Thanks: 565 time(s)
Ukraine


Хороший альбом, приятный. Только мне показалось голос чуток изменился у вокалиста, курит наверное много (IMG:style_emoticons/default/1488.gif) .
Go to the top of the page
  Insert nick Quick quote
+Quote Post

Reply to this topicStart new topic
1 User(s) are reading this topic (1 Guests and 0 Anonymous Users)
0 Members:

 



- Lo-Fi Version Support form
Copyrights and abuse reports form
Time is now: 26th May 2024 - 10:14:51