Welcome Guest ( Log In | Register )

Объявления

* gmail.com упорно продолжает считать почту с нас "unsolicited" и отбивает в том числе и письма активации, поэтому просьба использовать альтернативные почтовые ящики.
------------
* gmail.com continues reject all mail from us as "unsolicited" (activation mails too) therefore please use alternate mail servers.
> Asagraum - Impure Fire [single] (2023), Black Metal
post Aug 31 2023, 16:38:41
Post #1

ЗаDOOMчивый
**************
Group: Металариец
Posts: 2,283
Releases: 64
From: Cradlовская обл., г. Нижний Gorgoroth, р-н Doom-о-Deathово
On Forums: 15 years 4 months
Thanks: 2166 time(s)
Russian Federation


(IMG:https://metalarea.org/images/audiocovers/2023_Aug/acov_tid385670_thumb.jpg)

*Artist: Asagraum
*Album: Impure Fire [single]
*Year: 2023
*Genre: Black Metal
*Country: Netherlands (IMG:https://metalarea.org/forum/style_images/flags/Netherlands.png)
*Format: mp3@CBR320kbps
*Size: 12MB

Tracklist:
01. Impure Fire 05:10
******************************
Total playing time: 5:10

Youtube

Extended info
Track from the upcoming album 'Veil of Death, Ruptured'. To be released by Edged Circle Productions (CD/LP/MC/Digital) on October 20th, 2023.


Technical info
(IMG:https://metalarea.org/images/spectrogram/2023_Aug/5da5a3b6f07b7a8d62fe56056d8014ac.png)
Input File: 01 - Impure Fire.mp3
Channels : 2
Sample Rate : 44100
Precision : 16-bit
Duration : 00:05:10.00 = 13671000 samples = 23250 CDDA sectors
File Size : 12.5M
Bit Rate : 324k
Sample Encoding: MPEG audio (layer I, II or III)
Comments :
Title=Impure Fire
Artist=Asagraum
Album=Impure Fire (Single)
Tracknumber=01/01
Year=2023-08-11
Genre=Black Metal



Register


Go to the top of the page
  Insert nick Quick quote
+Quote Post
 
Start new topic
Replies (1 - 2)
post Aug 31 2023, 18:12:52
Post #2

Misanthrope
*****
Group: Металариец
Posts: 405
Releases: 4
From: урал
On Forums: 14 years 5 months
Thanks: 539 time(s)
Russian Federation


На родину вернулась?
Go to the top of the page
  Insert nick Quick quote
+Quote Post
post Sep 4 2023, 13:47:53
Post #3

______________
***********
Group: Металариец
Posts: 1,714
Releases: 0
On Forums: 4 years 5 months
Thanks: 535 time(s)
Unknown


ЦИТАТА(vovenom @ Aug 31 2023, 18:12:52) *
На родину вернулась?

Из Голландии в Нидерланды. :)


Thanks:
Go to the top of the page
  Insert nick Quick quote
+Quote Post

Reply to this topicStart new topic
2 User(s) are reading this topic (2 Guests and 0 Anonymous Users)
0 Members:

 



- Lo-Fi Version Support form
Copyrights and abuse reports form
Time is now: 23rd April 2024 - 09:31:28