Welcome Guest ( Log In | Register )

Объявления

* gmail.com упорно продолжает считать почту с нас "unsolicited" и отбивает в том числе и письма активации, поэтому просьба использовать альтернативные почтовые ящики.
------------
* gmail.com continues reject all mail from us as "unsolicited" (activation mails too) therefore please use alternate mail servers.
 
Reply to this topicStart new topic
> Bad Omens - Bad Omens (2016), Metalcore
post Sep 2 2023, 17:00:53
Post #1

Правь статус, ####!111
**************
Group: Металариец
Posts: 4,846
Releases: 29
From: Holland
On Forums: 17 years 11 months
Thanks: 1952 time(s)
Netherlands


(IMG:https://metalarea.org/images/audiocovers/2023_Sep/acov_tid385781_thumb.jpg)

*Artist: Bad Omens
*Album: Bad Omens
*Year: 2016
*Genre: Metalcore
*Country: United States (IMG:https://metalarea.org/forum/style_images/flags/United%20States.png)
*Format: mp3@CBR320kbps
*Size: 101MB

Tracklist:
1. Glass Houses 4:00
2. Exit Wounds 3:26
3. The Worst In Me 3:49
4. F E R A L 4:05
5. Enough, Enough Now 4:05
6. Malice 3:00
7. Hedonist 2:07
8. Broken Youth 3:14
9. Crawl 4:07
10. The Letdown 4:06
11. Reprise (The Sound Of The End) 3:21
12. The Fountain 3:59
******************************
Total playing time: 43:19

Preview 1
Preview 2

Extended info
Стянуто с интернетов


Technical info
(IMG:https://metalarea.org/images/spectrogram/2023_Sep/2e9890a28305159ab2b7fad56326dc32.png)
Input File: 07. Hedonist.mp3
Channels : 2
Sample Rate : 44100
Precision : 16-bit
Duration : 00:02:07.59 = 5626807 samples = 9569.4 CDDA sectors
File Size : 5.40M
Bit Rate : 339k
Sample Encoding: MPEG audio (layer I, II or III)
Comments :
Title=Hedonist
Artist=Bad Omens
Album=Bad Omens
Tracknumber=07
Year=2016
Genre=Post-Hardcore / Alt.Rock



Register


Go to the top of the page
  Insert nick Quick quote
+Quote Post

Reply to this topicStart new topic
2 User(s) are reading this topic (2 Guests and 0 Anonymous Users)
0 Members:

 



- Lo-Fi Version Support form
Copyrights and abuse reports form
Time is now: 14th June 2024 - 07:38:24