Welcome Guest ( Log In | Register )

 
Reply to this topicStart new topic
> Inittab - La Fleur Des Dieux [ep] (2023), Heavy Metal
post Sep 4 2023, 13:53:39
Post #1

Правь статус, 616
**************
Group: Металариец
Posts: 10,602
Releases: 8620
From: 55°35’N 38°08’E
On Forums: 15 years 9 months
Thanks: 152840 time(s)
Russian Federation


(IMG:https://metalarea.org/images/audiocovers/2023_Sep/acov_tid385835_thumb.jpg)

*Artist: Inittab
*Album: La Fleur Des Dieux [ep]
*Year: 2023
*Genre: Heavy Metal
*Country: France (IMG:https://metalarea.org/forum/style_images/flags/France.png)
*Format: mp3@CBR320kbps
*Size: 48MB

Tracklist:
1.Laisse Moi Le Temps 03:52
2.Rien 04:42
3.Laisse Tomber 05:22
4.La Fleur Des Dieux 06:29
******************************
Total playing time: 20:25



(IMG:https://metalarea.org/images/youtube.png)

Technical info
(IMG:https://metalarea.org/images/spectrogram/2023_Sep/7bebfda4f5d81b064a12e7354d137231.png)
Input File: 01 Laisse moi le temps.mp3
Channels : 2
Sample Rate : 44100
Precision : 16-bit
Duration : 00:03:52.19 = 10239667 samples = 17414.4 CDDA sectors
File Size : 9.46M
Bit Rate : 326k
Sample Encoding: MPEG audio (layer I, II or III)
Comments :
Title=Laisse moi le temps
Artist=INITTAB
Album=La fleur des dieux
Tracknumber=1
Year=2023
Genre=Heavy Metal



Register


Go to the top of the page
  Insert nick Quick quote
+Quote Post

Reply to this topicStart new topic
1 User(s) are reading this topic (1 Guests and 0 Anonymous Users)
0 Members:

 



- Lo-Fi Version Support form
Copyrights and abuse reports form
Time is now: 14th April 2024 - 08:17:23