Welcome Guest ( Log In | Register )

Объявления

* gmail.com упорно продолжает считать почту с нас "unsolicited" и отбивает в том числе и письма активации, поэтому просьба использовать альтернативные почтовые ящики.
------------
* gmail.com continues reject all mail from us as "unsolicited" (activation mails too) therefore please use alternate mail servers.

> И неформату есть предел.

Рэп/хип-хоп/шансон/поп удаляются. Для них есть свои порталы.

> Oomph! - Richter Und Henker (2023), Industrial Metal/Neue Deutsche Härte (D14)
post Sep 8 2023, 13:46:01
Post #1

Правь статус, ####!111
**************
Group: Металариец
Posts: 56,257
Releases: 1223
On Forums: 15 years 1 month
Thanks: 55301 time(s)
Russian Federation


(IMG:https://metalarea.org/images/audiocovers/2023_Sep/acov_tid386003_thumb.jpg)

*Artist: Oomph!
*Album: Richter Und Henker
*Year: 2023
*Genre: Industrial Metal/Neue Deutsche Härte
*Country: Germany (IMG:https://metalarea.org/forum/style_images/flags/Germany.png)
*Format: mp3@CBR320kbps
*Size: 127MB

Tracklist:
1. Wem die Stunde schlägt 05:04
2. Richter und Henker 04:37
3. Soll das Liebe sein 04:11
4. Nur ein Mensch 04:14
5. Schrei nur schrei 05:08
6. Nichts wird mehr gut 05:22
7. Sag jetzt einfach nichts 03:53
8. Es ist nichts, wie es scheint 03:31
9. Wo die Angst gewinnt 04:32
10. All die Jahre 04:05
11. Wut (feat. Joachim Witt) 03:46
12. Ein kleines bisschen Glück 06:54
******************************
Total playing time: 55:17

Technical info
(IMG:https://metalarea.org/images/spectrogram/2023_Sep/43b601e5a90c3fbfd186ec280e178f54.png)
Input File: 01. Wem die Stunde schlägt.mp3
Channels : 2
Sample Rate : 44100
Precision : 16-bit
Duration : 00:05:04.14 = 13412442 samples = 22810.3 CDDA sectors
File Size : 12.2M
Bit Rate : 321k
Sample Encoding: MPEG audio (layer I, II or III)
Comments :
Title=Wem die Stunde schlägt
Artist=Oomph!
Album=Richter und Henker
Tracknumber=01/12
Year=2023
Discnumber=1/1



Register


Go to the top of the page
  Insert nick Quick quote
+Quote Post
 
Start new topic
Replies (1 - 8)
post Sep 9 2023, 06:41:50
Post #2

Defekt
*****
Group: Металариец
Posts: 435
Releases: 63
From: Владимирская обл.
On Forums: 17 years 7 months
Thanks: 1080 time(s)
Russian Federation


Нус послушаем, что наваяли, откровения не жду, тем более без Деро.
Go to the top of the page
  Insert nick Quick quote
+Quote Post
post Sep 9 2023, 07:28:30
Post #3

Defekt
*****
Group: Металариец
Posts: 435
Releases: 63
From: Владимирская обл.
On Forums: 17 years 7 months
Thanks: 1080 time(s)
Russian Federation


На четвертой песне выключил. Ни о чём


Thanks:
(1) Vitald,
Go to the top of the page
  Insert nick Quick quote
+Quote Post
post Sep 9 2023, 08:22:52
Post #4

Forever Underground
**************
Group: Металариец
Posts: 12,242
Releases: 0
On Forums: 9 years 3 months
Thanks: 19954 time(s)
Unknown


Mirror link:
Register


Thanks:
Go to the top of the page
  Insert nick Quick quote
+Quote Post
post Sep 9 2023, 16:30:24
Post #5

Пять Литров
*****
Group: Металариец
Posts: 490
Releases: 20
From: СПб, Купчино
On Forums: 18 years 8 months
Thanks: 647 time(s)
Russian Federation


На вкус компота замена одного из ингредиентов никак не повлияла - Омф как Омф, слушается без напряга.
Go to the top of the page
  Insert nick Quick quote
+Quote Post
post Sep 10 2023, 21:35:30
Post #6
BAN
Banned till
Jul 17 2024, 23:09:32



Всё же слышно, что не Деро поёт, хоть и похоже. Но так-то хороший Умф, и траиционно последняя песня на альбоме лучшая.
Go to the top of the page
  Insert nick Quick quote
+Quote Post
post Sep 11 2023, 15:28:07
Post #7

मृत्यु
**************
Group: Металариец
Posts: 3,621
Releases: 24
On Forums: 13 years 11 months
Thanks: 2379 time(s)
Antarctica


Go to the top of the page
  Insert nick Quick quote
+Quote Post
post Sep 14 2023, 02:53:48
Post #8
BAN
Banned till
Aug 25 2024, 18:36:18



ЦИТАТА(Immolator @ Sep 9 2023, 07:28:30) *
На четвертой песне выключил. Ни о чём

Я ещё несколько пейсен осилил после неё и снёс на хeр.
Go to the top of the page
  Insert nick Quick quote
+Quote Post
post Sep 17 2023, 12:22:48
Post #9

Маньяк
**********
Group: Металариец
Posts: 1,142
Releases: 6
On Forums: 5 years 1 month
Thanks: 982 time(s)
Unknown


Теперь звучат как одни из своих многочисленных последователей. Вообще, конечно, я могу долго критиковать ряд их позднего творчества, но без Деро стало ещё хуже, чем бывало в не самые успешные времена. Настолько уникального вокалиста лишиться обидно, им следовало сменить вывеску.
Go to the top of the page
  Insert nick Quick quote
+Quote Post

Reply to this topicStart new topic
1 User(s) are reading this topic (1 Guests and 0 Anonymous Users)
0 Members:

 



- Lo-Fi Version Support form
Copyrights and abuse reports form
Time is now: 15th July 2024 - 09:39:09