Welcome Guest ( Log In | Register )

> Zanak'adala - Betrayed By Entertainment (2022), Thrash Metal
post Sep 10 2023, 01:13:06
Post #1

Правь статус, ####!111
**************
Group: Металариец
Posts: 35,138
Releases: 26136
From: Г.Харьков
On Forums: 11 years 9 months
Thanks: 562677 time(s)
Ukraine


(IMG:https://metalarea.org/images/audiocovers/2023_Sep/acov_tid386052_thumb.jpg)

*Artist: Zanak'adala
*Album: Betrayed By Entertainment
*Year: 2022
*Genre: Thrash Metal
*Country: Madagascar (IMG:https://metalarea.org/forum/style_images/flags/Madagascar.png)
*Format: mp3@CBR320kbps
*Size: 95MB

Tracklist:
1. Zanaka Mapar 04:23
2. Foza 04:03
3. Feo Miantso 04:26
4. Mifohaza Ry Adala 04:40
5. Betrayed by Entertainment 05:20
6. Maty Zanahary 04:35
7. God's Talk 04:24
8. Maharikoriko 04:29
9. Nilaozany 04:42
******************************
Total playing time: 41:02



Extended info
Vony Ratahiriniaina Drums
Dylan Rabaraona Guitars
Robert Razanajatovo Guitars
Mamy Harison Vocals, Bass (2012-present)



Technical info
(IMG:https://metalarea.org/images/spectrogram/2023_Sep/01a4001ae726169000b2aaf06a00ca35.png)
Input File: 05 - Betrayed By Entertainment.mp3
Channels : 2
Sample Rate : 44100
Precision : 16-bit
Duration : 00:05:20.00 = 14112000 samples = 24000 CDDA sectors
File Size : 12.9M
Bit Rate : 324k
Sample Encoding: MPEG audio (layer I, II or III)
Comments :
Title=Betrayed By Entertainment
Artist=Zanak'adala
Album=Betrayed By Entertainment
Tracknumber=5
Year=2022-11-03
Genre=オルタナティヴ
Discnumber=1



Register


Go to the top of the page
  Insert nick Quick quote
+Quote Post
 
Start new topic
Replies (1 - 2)
post Sep 11 2023, 09:10:06
Post #2

Это просто место… где все подошло к концу.
**************
Group: Металариец
Posts: 6,859
Releases: 0
From: Страны Мамонтов
On Forums: 17 years 2 weeks
Thanks: 2873 time(s)
Antarctica


Пингвины замутили альбом


Thanks:
Go to the top of the page
  Insert nick Quick quote
+Quote Post
post Sep 11 2023, 18:38:22
Post #3

hearer & reader
**************
Group: Металариец
Posts: 10,861
Releases: 233
From: Moscow
On Forums: 16 years 5 months
Thanks: 13563 time(s)
Russian Federation


ЦИТАТА(avather @ Sep 11 2023, 11:10:06) *
Пингвины замутили альбом

(IMG:style_emoticons/default/nono.gif) лемуры


Thanks:
Go to the top of the page
  Insert nick Quick quote
+Quote Post

Reply to this topicStart new topic
1 User(s) are reading this topic (1 Guests and 0 Anonymous Users)
0 Members:

 



- Lo-Fi Version Support form
Copyrights and abuse reports form
Time is now: 5th March 2024 - 11:52:13