Welcome Guest ( Log In | Register )

> И неформату есть предел.

Рэп/хип-хоп/шансон/поп удаляются. Для них есть свои порталы.

> The Chemical Brothers - For That Beautiful Feeling (2023), Electronic
post Sep 11 2023, 21:11:05
Post #1

Правь статус, ####!111
**************
Group: Металариец
Posts: 54,937
Releases: 1102
On Forums: 14 years 6 months
Thanks: 52905 time(s)
Russian Federation


(IMG:https://metalarea.org/images/audiocovers/2023_Sep/acov_tid386092_thumb.jpg)

*Artist: The Chemical Brothers
*Album: For That Beautiful Feeling
*Year: 2023
*Genre: Electronic
*Country: United Kingdom (IMG:https://metalarea.org/forum/style_images/flags/United%20Kingdom.png)
*Format: mp3@CBR320kbps
*Size: 108MB

Tracklist:
1. Intro
2. Live Again (Feat. Halo Maud)
3. No Reason
4. Goodbye
5. Fountains
6. Magic Wand
7. The Weight
8. Skipping Like A Stone (Feat. Beck)
9. The Darkness That You Fear (Harvest Mix)
10. Feels Like I Am Dreaming
11. For That Beautiful Feeling (Feat. Halo Maud)
******************************
Total playing time: 47:04

Technical info
(IMG:https://metalarea.org/images/spectrogram/2023_Sep/d3b0d48a5f46035af0c787d7afcb10f9.png)
Input File: 02. Live Again (Feat. Halo Maud).mp3
Channels : 2
Sample Rate : 44100
Precision : 16-bit
Duration : 00:05:09.91 = 13667031 samples = 23243.3 CDDA sectors
File Size : 12.4M
Bit Rate : 320k
Sample Encoding: MPEG audio (layer I, II or III)
Comments :
Title=Live Again (Feat. Halo Maud)
Artist=The Chemical Brothers
Album=For That Beautiful Feeling
Tracknumber=02
Year=2023
Genre=Electro



Register


Go to the top of the page
  Insert nick Quick quote
+Quote Post
 
Start new topic
Replies (1 - 3)
post Sep 12 2023, 03:47:20
Post #2

королева бала
**********
Group: Металариец
Posts: 1,385
Releases: 0
On Forums: 16 years 7 months
Thanks: 910 time(s)
Russian Federation


альбом на 10/10 химиков, совершенно восхитительный


Thanks:
(1) Occultas,
Go to the top of the page
  Insert nick Quick quote
+Quote Post
post Sep 13 2023, 11:21:16
Post #3

королева бала
**********
Group: Металариец
Posts: 1,385
Releases: 0
On Forums: 16 years 7 months
Thanks: 910 time(s)
Russian Federation


QUOTE(Occultas @ Sep 13 2023, 16:19:35) *
Up Bonus:

12. All Of A Sudden
13. I Want To Know


"All Of A Sudden" давнишний бисайд к синглу "No Reason". А вот "I Want To Know" ждём пока кто-нить с японского СД не рипнет.

В делюксе еще такие бонусы есть:

12 No Reason (Extended Mix)
13 Live Again (Extended Mix) Featuring – Halo Maud
14 Skipping Like A Stone (Extended Mix) Featuring – Beck
15 All Of A Sudden

Все уже ранее на синглах выходили.

Еще был бисайд "Work Energy Principle" к синглу "The Darkness That You Fear".


Thanks:
(1) Occultas,
Go to the top of the page
  Insert nick Quick quote
+Quote Post
post Oct 11 2023, 16:47:04
Post #4

tailleur de pierre
***********
Group: Металариец
Posts: 1,767
Releases: 54
On Forums: 12 years 9 months
Thanks: 2070 time(s)
Russian Federation


На отлично. Как будто послушал эфир l-radio в лучшие его годы. Сочный психодел... Однозначно слушать ещё.
Go to the top of the page
  Insert nick Quick quote
+Quote Post

Reply to this topicStart new topic
2 User(s) are reading this topic (2 Guests and 0 Anonymous Users)
0 Members:

 



- Lo-Fi Version Support form
Copyrights and abuse reports form
Time is now: 9th December 2023 - 05:40:54