Welcome Guest ( Log In | Register )

Объявления

* gmail.com упорно продолжает считать почту с нас "unsolicited" и отбивает в том числе и письма активации, поэтому просьба использовать альтернативные почтовые ящики.
------------
* gmail.com continues reject all mail from us as "unsolicited" (activation mails too) therefore please use alternate mail servers.
> Omega Sun - Roadkill (2023), Stoner/Doom Metal
post Sep 12 2023, 18:14:51
Post #1

Правь статус, ####!111
**************
Group: Металариец
Posts: 7,573
Releases: 6926
From: Одесса
On Forums: 15 years 11 months
Thanks: 80688 time(s)
Ukraine


(IMG:https://metalarea.org/images/audiocovers/2023_Sep/acov_tid386119_thumb.jpg)

*Artist: Omega Sun
*Album: Roadkill
*Year: 2023
*Genre: Stoner/Doom Metal
*Country: Slovenia (IMG:https://metalarea.org/forum/style_images/flags/Slovenia.png)
*Format: mp3@CBR320kbps
*Size: 94MB

Tracklist:
1. The One 05:20
2. Black Dust 08:08
3. Survive 06:32
4. Another You 09:08
5. Early Morning 05:16
6. Doomer 04:40
******************************
Total playing time: 39:04



Extended info
Line - up:

Seba - Drums
Aris - Guitars (Somrak, ex-Krvnik, ex-Hellcrawler, ex-Skorbut)
Medo - Vocals, Bass (ex-Cannibal Family, ex-Night Sun)

Vinyl (LP), CD and tape version available in December 2023, released through No Profit Recordings.

"Omega Sun are still on FIRE on this release that offers moments of pure excitement when the band play a more gloomier style of music that can be quite unexpectedly deafening in places.

This is a wickedly entertaining release that should allow Omega Sun to be welcomed into the Doom/Stoner Metal underground scene even further with open arms by an appreciative audience."
Steve Howe
outlawsofthesun.blogspot.com

"For the six tracks on the new Roadkill album are pure, unadulterated, atavistic stonerrock, sundried guitar tones and fuzzed out doom. This will take you back to the days of the legends and those parties smack dab in the middle of Palm Desert."
JK
stonerhive.blogspot.com


Technical info
(IMG:https://metalarea.org/images/spectrogram/2023_Sep/5ce882993ca88ca426aa09ee15ab5239.png)
Input File: 06. Doomer.mp3
Channels : 2
Sample Rate : 44100
Precision : 16-bit
Duration : 00:04:39.92 = 12344472 samples = 20994 CDDA sectors
File Size : 11.2M
Bit Rate : 320k
Sample Encoding: MPEG audio (layer I, II or III)
Comments :
Title=Doomer
Artist=Omega Sun
Album=Roadkill
Tracknumber=6
Year=2023
Genre=Stoner | Doom Metal



Register


Go to the top of the page
  Insert nick Quick quote
+Quote Post
 
Start new topic
Replies (1 - 5)
post Sep 12 2023, 19:51:35
Post #2
BAN
Banned till
May 24 2024, 17:39:45



Чет развелось в последнее время этого стонер/дума (IMG:style_emoticons/default/21.gif)
Go to the top of the page
  Insert nick Quick quote
+Quote Post
post Sep 12 2023, 21:57:17
Post #3

Правь статус, ####!111
**************
Group: Металариец
Posts: 56,003
Releases: 1201
On Forums: 14 years 11 months
Thanks: 54872 time(s)
Russian Federation


ЦИТАТА(avather @ Sep 12 2023, 21:51:35) *
Чет развелось в последнее время этого стонер/дума (IMG:style_emoticons/default/21.gif)


Не больше и не меньше остальных жанров этого вашего тяжа (IMG:style_emoticons/default/25.gif)
Go to the top of the page
  Insert nick Quick quote
+Quote Post
post Sep 13 2023, 05:42:10
Post #4

Кожаный ублюдок
**************
Group: Металариец
Posts: 3,560
Releases: 6
From: Алчевск (early) Некросибирск (now)
On Forums: 15 years 4 weeks
Thanks: 2531 time(s)
Russian Federation


ЦИТАТА(avather @ Sep 12 2023, 21:51:35) *
Чет развелось в последнее время этого стонер/дума (IMG:style_emoticons/default/21.gif)

И это прекрасно! (IMG:style_emoticons/default/headcrab.png)


Thanks:
(1) alikkon,
Go to the top of the page
  Insert nick Quick quote
+Quote Post
post Sep 13 2023, 08:14:57
Post #5

Правь статус, ####!111
**************
Group: Металариец
Posts: 56,003
Releases: 1201
On Forums: 14 years 11 months
Thanks: 54872 time(s)
Russian Federation


Банальненько.
Go to the top of the page
  Insert nick Quick quote
+Quote Post
post Sep 13 2023, 11:15:20
Post #6

Три Литра
***
Group: Завсегдатай
Posts: 236
Releases: 0
On Forums: 2 years 5 months
Thanks: 78 time(s)
Russian Federation


ЦИТАТА(vosmidesijatye @ Sep 13 2023, 12:14:57) *
Банальненько.

Вот потому и плохо, что развелось (IMG:style_emoticons/default/21.gif)
Go to the top of the page
  Insert nick Quick quote
+Quote Post

Reply to this topicStart new topic
1 User(s) are reading this topic (1 Guests and 0 Anonymous Users)
0 Members:

 



- Lo-Fi Version Support form
Copyrights and abuse reports form
Time is now: 30th May 2024 - 21:06:15