Welcome Guest ( Log In | Register )

Объявления

* gmail.com упорно продолжает считать почту с нас "unsolicited" и отбивает в том числе и письма активации, поэтому просьба использовать альтернативные почтовые ящики.
------------
* gmail.com continues reject all mail from us as "unsolicited" (activation mails too) therefore please use alternate mail servers.

> И неформату есть предел.

Рэп/хип-хоп/шансон/поп удаляются. Для них есть свои порталы.

> John Zorn - Nova Express (2011), Avant-Garde/Jazz (D32)
post Sep 14 2023, 17:33:31
Post #1

Правь статус, ####!111
**************
Group: Металариец
Posts: 56,099
Releases: 1212
On Forums: 15 years 1 week
Thanks: 55052 time(s)
Russian Federation


(IMG:https://metalarea.org/images/audiocovers/2023_Sep/acov_tid386211_thumb.jpg)

*Artist: John Zorn
*Album: Nova Express
*Year: 2011
*Genre: Avant-Garde/Jazz
*Country: United States (IMG:https://metalarea.org/forum/style_images/flags/United%20States.png)
*Format: mp3@CBR320kbps
*Size: 105MB

Tracklist:
1. Chemical Garden
2. Port of Saints
3. Rain Flowers
4. The Outer Half
5. Dead Fingers Talk
6. The Ticket that Exploded
7. Blue Veil
8. IC 2118
9. Lost Words
10. Between Two Worlds
******************************
Total playing time: 46:13

Technical info
(IMG:https://metalarea.org/images/spectrogram/2023_Sep/5a7449fce39d53f71ba5c9016a25e924.png)
Input File: 03. John Zorn - Rain Flowers.mp3
Channels : 2
Sample Rate : 44100
Precision : 16-bit
Duration : 00:04:40.65 = 12376753 samples = 21048.9 CDDA sectors
File Size : 11.5M
Bit Rate : 329k
Sample Encoding: MPEG audio (layer I, II or III)
Comments :
Title=Rain Flowers
Artist=John Zorn
Album=Nova Express
Tracknumber=03
Year=2011
Genre=Avant-Garde



Register


Go to the top of the page
  Insert nick Quick quote
+Quote Post
 
Start new topic
Replies (1 - 1)
post Sep 14 2023, 18:01:30
Post #2

Правь статус, ####!111
**************
Group: Металариец
Posts: 56,099
Releases: 1212
On Forums: 15 years 1 week
Thanks: 55052 time(s)
Russian Federation


Абсолютное музыкальное наслаждение, Зорн в своём лучшем проявлении.
Go to the top of the page
  Insert nick Quick quote
+Quote Post

Reply to this topicStart new topic
1 User(s) are reading this topic (1 Guests and 0 Anonymous Users)
0 Members:

 



- Lo-Fi Version Support form
Copyrights and abuse reports form
Time is now: 14th June 2024 - 11:13:49