Welcome Guest ( Log In | Register )

Объявления

* gmail.com упорно продолжает считать почту с нас "unsolicited" и отбивает в том числе и письма активации, поэтому просьба использовать альтернативные почтовые ящики.
------------
* gmail.com continues reject all mail from us as "unsolicited" (activation mails too) therefore please use alternate mail servers.
> Code - Hunting For Caesar [single] (2023), Progressive Black Metal (D)
post Sep 15 2023, 15:00:21
Post #1

Правь статус, 616
**************
Group: Металариец
Posts: 10,768
Releases: 8771
From: 55°35’N 38°08’E
On Forums: 15 years 10 months
Thanks: 155997 time(s)
Russian Federation


(IMG:https://metalarea.org/images/audiocovers/2023_Sep/acov_tid386252_thumb.jpg)

*Artist: Code
*Album: Hunting For Caesar [single]
*Year: 2023
*Genre: Progressive Black Metal
*Country: United Kingdom (IMG:https://metalarea.org/forum/style_images/flags/United%20Kingdom.png)
*Format: mp3@CBR320kbps
*Size: 16MB

Tracklist:
1.The Long Drop 03:12
2.Hunting for Caesar 03:38
******************************
Total playing time: 6:50



(IMG:https://metalarea.org/images/youtube.png)

Technical info
(IMG:https://metalarea.org/images/spectrogram/2023_Sep/b91a9d04111b03e01f314f1ff811c1ef.png)
Input File: 02 Hunting for Caesar.mp3
Channels : 2
Sample Rate : 44100
Precision : 16-bit
Duration : 00:03:38.43 = 9632543 samples = 16381.9 CDDA sectors
File Size : 8.78M
Bit Rate : 322k
Sample Encoding: MPEG audio (layer I, II or III)
Comments :
Title=Hunting for Caesar
Artist=Code
Album=Hunting For Caesar - Single
Tracknumber=2
Year=2023
Genre=Black Metal



Register


Go to the top of the page
  Insert nick Quick quote
+Quote Post
 
Start new topic
Replies (1 - 2)
post Sep 18 2023, 18:12:15
Post #2

Правь статус, ####!111
**************
Group: Металариец
Posts: 7,566
Releases: 6920
From: Одесса
On Forums: 15 years 11 months
Thanks: 80603 time(s)
Ukraine


Register


Thanks:
Go to the top of the page
  Insert nick Quick quote
+Quote Post
post Oct 23 2023, 12:51:10
Post #3

Правь статус, ####!111
**************
Group: Металариец
Posts: 4,841
Releases: 29
From: Holland
On Forums: 17 years 10 months
Thanks: 1942 time(s)
Netherlands


Всегда с нетерпением жду новья от них. Сингл весьма многообещающ - на нем есть все, за что люблю группу. Стилистика в вене последнего альбома.


Thanks:
(1) yuratroll,
Go to the top of the page
  Insert nick Quick quote
+Quote Post

Reply to this topicStart new topic
2 User(s) are reading this topic (2 Guests and 0 Anonymous Users)
0 Members:

 



- Lo-Fi Version Support form
Copyrights and abuse reports form
Time is now: 28th May 2024 - 01:56:51