Welcome Guest ( Log In | Register )

> Lord Raahl - Nihilistic Dreams [ep] (2023), Depressive Black Metal
post Sep 16 2023, 06:23:28
Post #1

Правь статус, ####!111
**************
Group: Металариец
Posts: 8,651
Releases: 6898
On Forums: 13 years 4 months
Thanks: 121137 time(s)
Italy


(IMG:https://metalarea.org/images/audiocovers/2023_Sep/acov_tid386284_thumb.jpg)

*Artist: Lord Raahl
*Album: Nihilistic Dreams [ep]
*Year: 2023
*Genre: Depressive Black Metal
*Country: Brazil (IMG:https://metalarea.org/forum/style_images/flags/Brazil.png)
*Format: mp3@CBR320kbps
*Size: 40MB

Tracklist:
1.Sad Memory 01:28
2.Take Me, Death 03:46
3.Nihilistic Dreams 05:14
4.Little Gabi 01:48
5.Take Me, Death (Demo) 05:01
******************************
Total playing time: 17:17



Technical info
(IMG:https://metalarea.org/images/spectrogram/2023_Sep/826304dd586cde22032aa429faa97d0a.png)
Input File: 3.Nihilistic Dreams.mp3
Channels : 2
Sample Rate : 44100
Precision : 16-bit
Duration : 00:05:14.59 = 13873287 samples = 23594 CDDA sectors
File Size : 13.0M
Bit Rate : 332k
Sample Encoding: MPEG audio (layer I, II or III)
Comments :
Title=Nihilistic Dreams
Artist=Lord Raahl
Album=Nihilistic Dreams
Tracknumber=3/5
Year=2023
Discnumber=1/1



Register


Go to the top of the page
  Insert nick Quick quote
+Quote Post
 
Start new topic
Replies (1 - 1)
post Sep 17 2023, 19:39:42
Post #2

i listen to black metal
**************
Group: Металариец
Posts: 4,054
Releases: 150
From: Москва
On Forums: 17 years 3 months
Thanks: 2626 time(s)
Russian Federation


дайте КЕФКе подзатыльник ,он задолбал иные стили писать((((
Go to the top of the page
  Insert nick Quick quote
+Quote Post

Reply to this topicStart new topic
1 User(s) are reading this topic (1 Guests and 0 Anonymous Users)
0 Members:

 



- Lo-Fi Version Support form
Copyrights and abuse reports form
Time is now: 17th April 2024 - 23:42:51