Welcome Guest ( Log In | Register )

 
Reply to this topicStart new topic
> Marthyria - Sacrifice (2023), Thrash/Heavy Metal
post Sep 16 2023, 20:21:39
Post #1

Правь статус, ####!111
**************
Group: Металариец
Posts: 35,545
Releases: 26461
From: Г.Харьков
On Forums: 11 years 11 months
Thanks: 571812 time(s)
Ukraine


(IMG:https://metalarea.org/images/audiocovers/2023_Sep/acov_tid386301_thumb.jpg)

*Artist: Marthyria
*Album: Sacrifice
*Year: 2023
*Genre: Thrash/Heavy Metal
*Country: Brazil (IMG:https://metalarea.org/forum/style_images/flags/Brazil.png)
*Format: mp3@CBR320kbps
*Size: 119MB

Tracklist:
01. At the Dawn of the Third Day 05:47
02. Mercy on Me 05:17
03. My Shepherd 06:05
04. Drastic Changes 04:07
05. Nothing to Lose 05:00
06. Sacrifice 06:20
07. Deliver Us from Evil 04:53
08. A Look into Eternity 03:48
09. Increase 06:05
10. Unfading Rose 04:54
******************************
Total playing time: 52:16

(IMG:https://metalarea.org/images/youtube.png)

Extended info
Vocals & guitars: Juan José Léniz
Bass: Rodrigo Aranda
Drums: Diego Letelier


Technical info
(IMG:https://metalarea.org/images/spectrogram/2023_Sep/3fe2eda2edb1a107042d7f602f7cadb9.png)
Input File: 07 - Deliver Us from Evil.mp3
Channels : 2
Sample Rate : 44100
Precision : 16-bit
Duration : 00:04:52.80 = 12912436 samples = 21959.9 CDDA sectors
File Size : 11.7M
Bit Rate : 320k
Sample Encoding: MPEG audio (layer I, II or III)
Comments :
Title=Deliver Us from Evil
Artist=Marthyria
Album=Sacrifice
Tracknumber=7
Year=2023



Register


Go to the top of the page
  Insert nick Quick quote
+Quote Post
post Sep 18 2023, 16:42:35
Post #2

MDM-Thrash Metal
**************
Group: Металариец
Posts: 12,365
Releases: 1730
From: Одесса
On Forums: 16 years 8 months
Thanks: 40266 time(s)
Ukraine




Thanks:
Go to the top of the page
  Insert nick Quick quote
+Quote Post

Reply to this topicStart new topic
1 User(s) are reading this topic (1 Guests and 0 Anonymous Users)
0 Members:

 



- Lo-Fi Version Support form
Copyrights and abuse reports form
Time is now: 14th April 2024 - 08:55:05