Welcome Guest ( Log In | Register )

 
Reply to this topicStart new topic
> Void Ritual - Holodomor [ep] (2014), Black Metal (D7)
post Sep 17 2023, 12:50:21
Post #1

Правь статус, 616
**************
Group: Металариец
Posts: 10,377
Releases: 8433
From: 55°35’N 38°08’E
On Forums: 15 years 7 months
Thanks: 149849 time(s)
Russian Federation


(IMG:https://metalarea.org/images/audiocovers/2023_Sep/acov_tid386318_thumb.jpg)

*Artist: Void Ritual
*Album: Holodomor [ep]
*Year: 2014
*Genre: Black Metal
*Country: United States (IMG:https://metalarea.org/forum/style_images/flags/United%20States.png)
*Format: mp3@CBR320kbps
*Size: 51MB

Tracklist:
1.Cold 06:22
2.Void Ritual 05:13
3.Holodomor 05:03
4.Mourning the Dawn 05:13
******************************
Total playing time: 21:51




Technical info
(IMG:https://metalarea.org/images/spectrogram/2023_Sep/0a35a64faab00411b00be1738ce0a36f.png)
Input File: 01 Cold.mp3
Channels : 2
Sample Rate : 44100
Precision : 16-bit
Duration : 00:06:22.67 = 16875571 samples = 28700 CDDA sectors
File Size : 15.6M
Bit Rate : 326k
Sample Encoding: MPEG audio (layer I, II or III)
Comments :
Title=Cold
Artist=Void Ritual
Album=Holodomor
Tracknumber=1/4
Year=2014
Genre=Black Metal



Register


Go to the top of the page
  Insert nick Quick quote
+Quote Post

Reply to this topicStart new topic
1 User(s) are reading this topic (1 Guests and 0 Anonymous Users)
0 Members:

 



- Lo-Fi Version Support form
Copyrights and abuse reports form
Time is now: 5th March 2024 - 11:40:43