Welcome Guest ( Log In | Register )

 
Reply to this topicStart new topic
> Void Ritual - Spirits Of The Black Past [compilation] (2017), Black Metal (D7)
post Sep 17 2023, 12:52:56
Post #1

Правь статус, 616
**************
Group: Металариец
Posts: 10,377
Releases: 8433
From: 55°35’N 38°08’E
On Forums: 15 years 7 months
Thanks: 149851 time(s)
Russian Federation


(IMG:https://metalarea.org/images/audiocovers/2023_Sep/acov_tid386319_thumb.jpg)

*Artist: Void Ritual
*Album: Spirits Of The Black Past [compilation]
*Year: 2017
*Genre: Black Metal
*Country: United States (IMG:https://metalarea.org/forum/style_images/flags/United%20States.png)
*Format: mp3@CBR320kbps
*Size: 144MB

Tracklist:
1.Mountains of Might (Immortal Cover) 06:57
2.Holodomor (2017 Version) 05:01
3.Of Wolves & Cowardice 05:11
4.Born of Ash 04:40
5.Vanish 04:01
6.A Mockery of Flesh & Bone 04:08
7.A Thirsty Delirium 04:34
8.Benevolent Mother (2016 Version) 05:18
9.The Wanderer's Solitude 05:33
10.Galvah 04:30
11.Reatus Sanguinis 04:07
12.The Blood on Our Hands (Instrumental) 05:20
13.The Devil Is Calling 02:50
******************************
Total playing time: 1:02:10




Extended info
Extended Version


Technical info
(IMG:https://metalarea.org/images/spectrogram/2023_Sep/5e809e93d47166061f99ecbaf45a31dc.png)
Input File: 03 Of Wolves & Cowardice.mp3
Channels : 2
Sample Rate : 44100
Precision : 16-bit
Duration : 00:05:11.11 = 13720039 samples = 23333.4 CDDA sectors
File Size : 12.6M
Bit Rate : 325k
Sample Encoding: MPEG audio (layer I, II or III)
Comments :
Title=Of Wolves & Cowardice
Artist=Void Ritual
Album=Spirits of the Black Past (Extended)
Tracknumber=3
Year=2017
Genre=Black Metal



Register


Go to the top of the page
  Insert nick Quick quote
+Quote Post

Reply to this topicStart new topic
1 User(s) are reading this topic (1 Guests and 0 Anonymous Users)
0 Members:

 



- Lo-Fi Version Support form
Copyrights and abuse reports form
Time is now: 5th March 2024 - 12:47:31