Welcome Guest ( Log In | Register )

 
Reply to this topicStart new topic
> Crowdead - Tearing Your Soul Apart (2023), Groove/Death Metal
post Sep 17 2023, 13:10:52
Post #1

Правь статус, ####!111
**************
Group: Металариец
Posts: 7,581
Releases: 5861
On Forums: 13 years 1 week
Thanks: 101274 time(s)
Italy


(IMG:https://metalarea.org/images/audiocovers/2023_Sep/acov_tid386320_thumb.jpg)

*Artist: Crowdead
*Album: Tearing Your Soul Apart
*Year: 2023
*Genre: Groove/Death Metal
*Country: Italy (IMG:https://metalarea.org/forum/style_images/flags/Italy.png)
*Format: mp3@CBR320kbps
*Size: 74MB

Tracklist:
01.Tearing Your Soul Apart 04:03
02.Human Deceit 03:17
03.Paralyzed 02:40
04.No Redemption 03:16
05.The Poem of Lies 01:12
06.Everything Ends 03:49
07.Hateful Discussions 03:22
08.Salvation 03:23
09.Territory (feat. Alle Rabitti) 05:14
******************************
Total playing time: 30:16

(IMG:https://metalarea.org/images/youtube.png)

Technical info
(IMG:https://metalarea.org/images/spectrogram/2023_Sep/2200363a9ee343c832b6ecc1f80e8522.png)
Input File: 2.Human Deceit.mp3
Channels : 2
Sample Rate : 44100
Precision : 16-bit
Duration : 00:03:17.24 = 8698196 samples = 14792.9 CDDA sectors
File Size : 8.45M
Bit Rate : 343k
Sample Encoding: MPEG audio (layer I, II or III)
Comments :
Title=Human Deceit
Artist=Crowdead
Album=Tearing Your Soul Apart
Tracknumber=2/9
Year=2023
Discnumber=1/1



Register


Go to the top of the page
  Insert nick Quick quote
+Quote Post

Reply to this topicStart new topic
1 User(s) are reading this topic (1 Guests and 0 Anonymous Users)
0 Members:

 



- Lo-Fi Version Support form
Copyrights and abuse reports form
Time is now: 30th November 2023 - 08:58:55