Welcome Guest ( Log In | Register )

> Edgeland - Keepers Of The Light (2023), Heavy Metal
post Sep 17 2023, 13:29:57
Post #1

Правь статус, ####!111
**************
Group: Металариец
Posts: 7,628
Releases: 5904
On Forums: 13 years 2 weeks
Thanks: 102273 time(s)
Italy


(IMG:https://metalarea.org/images/audiocovers/2023_Sep/acov_tid386322_thumb.jpg)

*Artist: Edgeland
*Album: Keepers Of The Light
*Year: 2023
*Genre: Heavy Metal
*Country: Sweden (IMG:https://metalarea.org/forum/style_images/flags/Sweden.png)
*Format: mp3@CBR320kbps
*Size: 78MB

Tracklist:
1.The Light Belongs To Me 04:22
2.Hillside Of The North 04:09
3.Set Fire 04:37
4.Keepers of the Light 05:06
5.The Clown 04:26
6.Chaos is Calling 03:59
7.Save the World 04:44
8.The Curse Of A Fallen Seabird... 02:15
******************************
Total playing time: 33:38

(IMG:https://metalarea.org/images/youtube.png)

Technical info
(IMG:https://metalarea.org/images/spectrogram/2023_Sep/9988a7a86f2eb7246a0be1c49a824f7b.png)
Input File: 6.Chaos is calling.mp3
Channels : 2
Sample Rate : 44100
Precision : 16-bit
Duration : 00:03:59.22 = 10549558 samples = 17941.4 CDDA sectors
File Size : 9.78M
Bit Rate : 327k
Sample Encoding: MPEG audio (layer I, II or III)
Comments :
Title=Chaos is calling
Artist=Edgeland
Album=Keepers of the light
Tracknumber=6/8
Year=2023
Discnumber=1/1



Register


Go to the top of the page
  Insert nick Quick quote
+Quote Post
 
Start new topic
Replies (1 - 3)
post Sep 18 2023, 16:47:10
Post #2

MDM-Thrash Metal
**************
Group: Металариец
Posts: 12,114
Releases: 1689
From: Одесса
On Forums: 16 years 3 months
Thanks: 39505 time(s)
Ukraine


Go to the top of the page
  Insert nick Quick quote
+Quote Post
post Sep 19 2023, 10:27:38
Post #3

Добрый язычник
**********
Group: Металариец
Posts: 1,049
Releases: 11
From: Санкт-Петербург
On Forums: 17 years 11 months
Thanks: 339 time(s)
Russian Federation


Очень неплохой хэви. Можно пару раз прогнать.
Go to the top of the page
  Insert nick Quick quote
+Quote Post
post Oct 13 2023, 13:05:37
Post #4

Шесть Литров
******
Group: Металариец
Posts: 682
Releases: 37
From: Суворов
On Forums: 5 years 10 months
Thanks: 434 time(s)
Russian Federation


мужики по олдскулу
Go to the top of the page
  Insert nick Quick quote
+Quote Post

Reply to this topicStart new topic
1 User(s) are reading this topic (1 Guests and 0 Anonymous Users)
0 Members:

 



- Lo-Fi Version Support form
Copyrights and abuse reports form
Time is now: 4th December 2023 - 21:27:35