Welcome Guest ( Log In | Register )

> Desecrated Conscience - Sacrifice (2023), Symphonic Death Metal
post Sep 17 2023, 14:39:35
Post #1

Правь статус, ####!111
**************
Group: Металариец
Posts: 7,585
Releases: 5865
On Forums: 13 years 1 week
Thanks: 101382 time(s)
Italy


(IMG:https://metalarea.org/images/audiocovers/2023_Sep/acov_tid386326_thumb.jpg)

*Artist: Desecrated Conscience
*Album: Sacrifice
*Year: 2023
*Genre: Symphonic Death Metal
*Country: Argentina (IMG:https://metalarea.org/forum/style_images/flags/Argentina.png)
*Format: mp3@CBR320kbps
*Size: 95MB

Tracklist:
01.Intro 00:48
02.The Sweat, The Blood 05:00
03.Unfortunate Oblivion 05:49
04.Scavenger Of Souls 05:04
05.The Relief 04:02
06.Sacrifice 06:16
07.Addicted 05:47
08.A Day, A Year, A Life 03:40
09.Died 04:35
******************************
Total playing time: 41:01

(IMG:https://metalarea.org/images/youtube.png)

Technical info
(IMG:https://metalarea.org/images/spectrogram/2023_Sep/382411d9dfb21ecada3b4917433a4bcf.png)
Input File: 5.The Relief.mp3
Channels : 2
Sample Rate : 44100
Precision : 16-bit
Duration : 00:04:01.81 = 10663601 samples = 18135.4 CDDA sectors
File Size : 9.91M
Bit Rate : 328k
Sample Encoding: MPEG audio (layer I, II or III)
Comments :
Title=The Relief
Artist=Desecrated Conscience
Album=Sacrifice
Tracknumber=5/9
Year=2023
Discnumber=1/1



Register


Go to the top of the page
  Insert nick Quick quote
+Quote Post
 
Start new topic
Replies (1 - 1)
post Sep 18 2023, 16:57:58
Post #2

MDM-Thrash Metal
**************
Group: Металариец
Posts: 12,111
Releases: 1689
From: Одесса
On Forums: 16 years 3 months
Thanks: 39499 time(s)
Ukraine




Довольно таки неплохая и качественная работа.
Go to the top of the page
  Insert nick Quick quote
+Quote Post

Reply to this topicStart new topic
1 User(s) are reading this topic (1 Guests and 0 Anonymous Users)
0 Members:

 



- Lo-Fi Version Support form
Copyrights and abuse reports form
Time is now: 1st December 2023 - 01:03:17