Welcome Guest ( Log In | Register )

 
Reply to this topicStart new topic
> Galleiria - The Grey Sky (2023), Blackened Doom Metal (D15)
post Sep 17 2023, 15:06:11
Post #1

Правь статус, ####!111
**************
Group: Металариец
Posts: 8,238
Releases: 6492
On Forums: 13 years 3 months
Thanks: 113313 time(s)
Italy


(IMG:https://metalarea.org/images/audiocovers/2023_Sep/acov_tid386327_thumb.jpg)

*Artist: Galleiria
*Album: The Grey Sky
*Year: 2023
*Genre: Blackened Doom Metal
*Country: United Kingdom (IMG:https://metalarea.org/forum/style_images/flags/United%20Kingdom.png)
*Format: mp3@CBR320kbps
*Size: 112MB

Tracklist:
1.Rains of Guilt 07:15
2.The Grey Sky 07:02
3.Alone on the Golden Shore 08:46
4.The Approaching Storm 06:10
5.In Memories I Dwell 06:12
6.Drowning 05:16
7.The Suffering of Others 07:23
******************************
Total playing time: 48:04



Technical info
(IMG:https://metalarea.org/images/spectrogram/2023_Sep/dddc134688612e224f6b83acd748dce1.png)
Input File: 6.Drowning.mp3
Channels : 2
Sample Rate : 44100
Precision : 16-bit
Duration : 00:05:16.91 = 13975819 samples = 23768.4 CDDA sectors
File Size : 13.0M
Bit Rate : 328k
Sample Encoding: MPEG audio (layer I, II or III)
Comments :
Title=Drowning
Artist=Galleiria
Album=The Grey Sky
Tracknumber=6/7
Year=2023
Discnumber=1/1



Register


Go to the top of the page
  Insert nick Quick quote
+Quote Post

Reply to this topicStart new topic
1 User(s) are reading this topic (1 Guests and 0 Anonymous Users)
0 Members:

 



- Lo-Fi Version Support form
Copyrights and abuse reports form
Time is now: 23rd February 2024 - 11:43:35