Welcome Guest ( Log In | Register )

Объявления

* gmail.com упорно продолжает считать почту с нас "unsolicited" и отбивает в том числе и письма активации, поэтому просьба использовать альтернативные почтовые ящики.
------------
* gmail.com continues reject all mail from us as "unsolicited" (activation mails too) therefore please use alternate mail servers.

> И неформату есть предел.

Рэп/хип-хоп/шансон/поп удаляются. Для них есть свои порталы.

 
Reply to this topicStart new topic
> Sleep Token - One [ep] (2016), Progressive/Alternative Metal (D4)
post Sep 17 2023, 15:46:53
Post #1

Правь статус, ####!111
**************
Group: Металариец
Posts: 4,872
Releases: 31
From: Holland
On Forums: 18 years 3 weeks
Thanks: 1980 time(s)
Netherlands


(IMG:https://metalarea.org/images/audiocovers/2023_Sep/acov_tid386328_thumb.jpg)

*Artist: Sleep Token
*Album: One [ep]
*Year: 2016
*Genre: Progressive/Alternative Metal
*Country: United Kingdom (IMG:https://metalarea.org/forum/style_images/flags/United%20Kingdom.png)
*Format: mp3@CBR320kbps
*Size: 77MB

Tracklist:
1. Thread The Needle 06:36
2. Fields Of Elation 04:36
3. When The Bough Breaks 07:38
4. Thread The Needle (Piano) 03:56
5. Fields Of Elation (Piano) 03:34
6. When The Bough Breaks (Piano) 05:00
******************************
Total playing time: 31:20



Extended info
Скачано с бэндкампа


Technical info
(IMG:https://metalarea.org/images/spectrogram/2023_Sep/19fadb7d9e829735dd13a08262c315f4.png)
Input File: Sleep Token - One - 05 Fields Of Elation (Piano).mp3
Channels : 2
Sample Rate : 44100
Precision : 16-bit
Duration : 00:03:34.09 = 9441149 samples = 16056.4 CDDA sectors
File Size : 8.63M
Bit Rate : 322k
Sample Encoding: MPEG audio (layer I, II or III)
Comments :
Title=Fields Of Elation (Piano)
Artist=Sleep Token
Album=One
Tracknumber=5
Year=2016



Register


Go to the top of the page
  Insert nick Quick quote
+Quote Post

Reply to this topicStart new topic
1 User(s) are reading this topic (1 Guests and 0 Anonymous Users)
0 Members:

 



- Lo-Fi Version Support form
Copyrights and abuse reports form
Time is now: 22nd July 2024 - 08:52:37