Welcome Guest ( Log In | Register )

> Flagrum - Innocent Blood (2023), Thrash/Death Metal
post Sep 17 2023, 16:30:36
Post #1

Правь статус, ####!111
**************
Group: Металариец
Posts: 35,004
Releases: 26024
From: Г.Харьков
On Forums: 11 years 9 months
Thanks: 559400 time(s)
Ukraine


(IMG:https://metalarea.org/images/audiocovers/2023_Sep/acov_tid386330_thumb.jpg)

*Artist: Flagrum
*Album: Innocent Blood
*Year: 2023
*Genre: Thrash/Death Metal
*Country: Ecuador (IMG:https://metalarea.org/forum/style_images/flags/Ecuador.png)
*Format: mp3@CBR320kbps
*Size: 68MB

Tracklist:
1. Intro 01:04
2. Agony of Souls 04:19
3. Putrefaction 03:38
4. The Call of Death 03:34
5. Flagellation 05:03
6. Annihilated Identity 03:38
7. With My Last Breath 04:06
8. Suicidal War 04:00
******************************
Total playing time: 29:22


(IMG:https://metalarea.org/images/youtube.png)

Extended info
FLAC-Rip
Carlos Yépez Drums
Gabriel Yépez Guitars
José Antonio Yépez Bass
Alex Herrera Vocals


Technical info
(IMG:https://metalarea.org/images/spectrogram/2023_Sep/aa1b484feff4887fea84580c1537cd72.png)
Input File: 05 - Flagellation.mp3
Channels : 2
Sample Rate : 44100
Precision : 16-bit
Duration : 00:05:03.00 = 13362300 samples = 22725 CDDA sectors
File Size : 12.3M
Bit Rate : 323k
Sample Encoding: MPEG audio (layer I, II or III)
Comments :
Title=Flagellation
Artist=Flagrum
Album=Innocent Blood
Tracknumber=5
Year=2023-09-15
Genre=ロック
Discnumber=1



Register


Go to the top of the page
  Insert nick Quick quote
+Quote Post
 
Start new topic
Replies (1 - 4)
post Sep 17 2023, 22:43:02
Post #2

Правь статус, ####!111
**************
Group: Металариец
Posts: 35,004
Releases: 26024
From: Г.Харьков
On Forums: 11 years 9 months
Thanks: 559400 time(s)
Ukraine


FLAC (Tracks) 213 mb
Register


Go to the top of the page
  Insert nick Quick quote
+Quote Post
post Sep 18 2023, 17:27:15
Post #3

MDM-Thrash Metal
**************
Group: Металариец
Posts: 12,233
Releases: 1713
From: Одесса
On Forums: 16 years 6 months
Thanks: 39856 time(s)
Ukraine




Thanks:
(1) Evrom,
Go to the top of the page
  Insert nick Quick quote
+Quote Post
post Sep 18 2023, 17:41:59
Post #4

Четыре Литра
****
Group: Металариец
Posts: 366
Releases: 1
From: Moscow
On Forums: 11 years 8 months
Thanks: 90 time(s)
Russian Federation


Т-34-85 на обложке вызывает нервный смех. Сюр какой-то.
ВС Лаоса конечно еще его используют, но и то уже дарят как сувениры, в РФ например.
П.С. Сабж - детство какое-то.
Go to the top of the page
  Insert nick Quick quote
+Quote Post
post Sep 18 2023, 19:44:22
Post #5

Отставший от мерседеса
**********
Group: Металариец
Posts: 1,197
Releases: 270
From: Ukraine
On Forums: 14 years 11 months
Thanks: 2424 time(s)
Ukraine


ЦИТАТА(terrano2006 @ Sep 18 2023, 19:41:59) *
Т-34-85 на обложке вызывает нервный смех. Сюр какой-то.
ВС Лаоса конечно еще его используют, но и то уже дарят как сувениры, в РФ например.
П.С. Сабж - детство какое-то.

А там еще три перевернутых Петьки!
Go to the top of the page
  Insert nick Quick quote
+Quote Post

Reply to this topicStart new topic
1 User(s) are reading this topic (1 Guests and 0 Anonymous Users)
0 Members:

 



- Lo-Fi Version Support form
Copyrights and abuse reports form
Time is now: 22nd February 2024 - 14:25:59