Welcome Guest ( Log In | Register )

 
Reply to this topicStart new topic
> Slijk - Ondertussen... (2018), Hard Rock/Heavy Metal
post Sep 17 2023, 16:50:54
Post #1

Правь статус, ####!111
**************
Group: Металариец
Posts: 2,283
Releases: 278
From: Omsk, Siberia
On Forums: 14 years 11 months
Thanks: 5841 time(s)
Russian Federation


(IMG:https://metalarea.org/images/audiocovers/2023_Sep/acov_tid386331_thumb.jpg)

*Artist: Slijk
*Album: Ondertussen...
*Year: 2018
*Genre: Hard Rock/Heavy Metal
*Country: Netherlands (IMG:https://metalarea.org/forum/style_images/flags/Netherlands.png)
*Format: mp3@CBR320kbps
*Size: 93MB

Tracklist:
1. Onderstel 04:19
2. Antwoord 03:41
3. Allerhande Hansen 05:11
4. Schorseneer Meneer 04:48
5. Wrattentinctuur 04:27
6. Thema 03:28 (instrumental)
7. In De Maanraket 04:26
8. Pomade Barrie 05:07
9. Gedruis 03:32
10. Thema 'reprise' 01:27 (instrumental, with keys) (internet bonus track)
******************************
Total playing time: 40:30


(IMG:https://metalarea.org/images/youtube.png)

Extended info
The band started under a new name right after Cromm Cruac split up.


Technical info
(IMG:https://metalarea.org/images/spectrogram/2023_Sep/3fa0072a311e724324758f28ec7f79fe.png)
Input File: 05 Wrattentinctuur.mp3
Channels : 2
Sample Rate : 44100
Precision : 16-bit
Duration : 00:04:27.09 = 11778669 samples = 20031.7 CDDA sectors
File Size : 10.8M
Bit Rate : 322k
Sample Encoding: MPEG audio (layer I, II or III)
Comments :
Title=Wrattentinctuur
Artist=Slijk
Album=Ondertussen...
Tracknumber=5
Year=2018
Genre=Hard Rock



Register


Thanks:
Go to the top of the page
  Insert nick Quick quote
+Quote Post

Reply to this topicStart new topic
1 User(s) are reading this topic (1 Guests and 0 Anonymous Users)
0 Members:

 



- Lo-Fi Version Support form
Copyrights and abuse reports form
Time is now: 23rd February 2024 - 10:17:29