Welcome Guest ( Log In | Register )

Объявления

* gmail.com упорно продолжает считать почту с нас "unsolicited" и отбивает в том числе и письма активации, поэтому просьба использовать альтернативные почтовые ящики.
------------
* gmail.com continues reject all mail from us as "unsolicited" (activation mails too) therefore please use alternate mail servers.
> Final Dose - Void Inside (2023), Black Metal/Punk
post Sep 17 2023, 16:57:04
Post #1

Правь статус, 616
**************
Group: Металариец
Posts: 11,047
Releases: 8998
From: 55°35’N 38°08’E
On Forums: 16 years 2 weeks
Thanks: 160312 time(s)
Russian Federation


(IMG:https://metalarea.org/images/audiocovers/2023_Sep/acov_tid386332_thumb.jpg)

*Artist: Final Dose
*Album: Void Inside
*Year: 2023
*Genre: Black Metal/Punk
*Country: United Kingdom (IMG:https://metalarea.org/forum/style_images/flags/United%20Kingdom.png)
*Format: mp3@CBR320kbps
*Size: 68MB

Tracklist:
1.Northbound Nightmare 01:10
2.Unchained 02:19
3.Cold 03:46
4.Laid To Unrest 02:24
5.Iron Will 02:39
6.Beyond The Hill 02:46
7.Oppressor 02:52
8.World Prisoner 02:50
9.Like Rats 02:47
10.Southbound Suffering 04:42
******************************
Total playing time: 28:15


(IMG:https://metalarea.org/images/youtube.png)

Technical info
(IMG:https://metalarea.org/images/spectrogram/2023_Sep/2a2c30516e3d032a6f77eec5a5edb99e.png)
Input File: 03 Cold.mp3
Channels : 2
Sample Rate : 44100
Precision : 16-bit
Duration : 00:03:46.60 = 9993104 samples = 16995.1 CDDA sectors
File Size : 9.27M
Bit Rate : 327k
Sample Encoding: MPEG audio (layer I, II or III)
Comments :
Title=Cold
Artist=Final Dose
Album=Void Inside
Tracknumber=3
Year=2023
Genre=Metalpunk



Register


Go to the top of the page
  Insert nick Quick quote
+Quote Post
 
Start new topic
Replies (1 - 1)
post Sep 21 2023, 03:42:57
Post #2
BAN
Banned till
Aug 25 2024, 18:36:18



Можно прогнать разок. Амбиентные куски в этой панкухе не в тему.
Go to the top of the page
  Insert nick Quick quote
+Quote Post

Reply to this topicStart new topic
1 User(s) are reading this topic (1 Guests and 0 Anonymous Users)
0 Members:

 



- Lo-Fi Version Support form
Copyrights and abuse reports form
Time is now: 24th July 2024 - 13:03:29