Welcome Guest ( Log In | Register )

> Releases Upload / Добавление релизов

Добавить релиз тут / Click here to add release
Рекомендованные обменники / Recommended file shares

> Amalgama - Back To The 80's (2023), Heavy Metal (D)
post Sep 17 2023, 16:58:52
Post #1

Правь статус, ####!111
**************
Group: Металариец
Posts: 6,734
Releases: 6154
From: Одесса
On Forums: 15 years 3 months
Thanks: 71948 time(s)
Ukraine


(IMG:https://metalarea.org/images/audiocovers/2023_Sep/acov_tid386333_thumb.jpg)

*Artist: Amalgama
*Album: Back To The 80's
*Year: 2023
*Genre: Heavy Metal
*Country: Russian Federation (IMG:https://metalarea.org/forum/style_images/flags/Russian%20Federation.png)
*Format: mp3@CBR320kbps
*Size: 77MB

Tracklist:
1. Back to the 80's 04:22
2. Rocky Man 03:10
3. Eye of the Storm 03:51
4. Rat Race 04:05
5. In the Middle of Nowhere 05:17
6. Save Me 03:45
7. Your Light 03:40
8. First Time 03:27
******************************
Total playing time: 31:37

Extended info
Line - up:

Timo Somers - Bass (Arjen Lucassen's Supersonic Revolution, Carthagods, Vengeance, Hardt, Tri-Head, ex-Delain, ex-End of the Dream (live))
Joey Marin De Boe - Drums (Vandenberg (live), ex-Purest of Pain, Dear Mother, Mayín, ex-Delain, ex-Timeless Hour)
Andrey Smirnov - Guitars, Vocals (Andrey Smirnov, Everlost, Flash of Aggression, Nebesa, U.D.O., Andrey Smirnoff's The Loner, Земляне, ex-Shadow Host, ex-Д.И.В.А., ex-Мастер, ex-Blaze Bayley (live), ex-Paul Di'Anno (live), ex-Эпидемия (live), ex-Галактика)
Vlad "Graf" Ivoilov - Vocals



Technical info
(IMG:https://metalarea.org/images/spectrogram/2023_Sep/d4576de72f1d69c0396a59dfe28f5fee.png)
Input File: 01 - Back to the 80\'S.mp3
Channels : 2
Sample Rate : 44100
Precision : 16-bit
Duration : 00:04:22.00 = 11554200 samples = 19650 CDDA sectors
File Size : 10.6M
Bit Rate : 322k
Sample Encoding: MPEG audio (layer I, II or III)
Comments :
Title=Back to the 80'S
Artist=Amalgama
Album=Back to the 80's
Tracknumber=1
Year=2023-09-17
Genre=137



Register


Go to the top of the page
  Insert nick Quick quote
+Quote Post
 
Start new topic
Replies (1 - 6)
post Sep 18 2023, 09:21:15
Post #2

Два Литра
**
Group: Завсегдатай
Posts: 122
Releases: 0
On Forums: 1 year 9 months
Thanks: 30 time(s)
Russian Federation


А чего правый руль-то вдруг?
Go to the top of the page
  Insert nick Quick quote
+Quote Post
post Sep 18 2023, 11:36:01
Post #3
BAN
Banned till
Oct 8 2023, 17:05:32



ЦИТАТА(Izverg @ Sep 18 2023, 11:21:15) *
А чего правый руль-то вдруг?


Шоб как в Англии (IMG:style_emoticons/default/bye.gif)
Go to the top of the page
  Insert nick Quick quote
+Quote Post
post Sep 18 2023, 21:31:45
Post #4

Это просто место… где все подошло к концу.
**************
Group: Металариец
Posts: 6,773
Releases: 0
From: Страны Мамонтов
On Forums: 16 years 7 months
Thanks: 2823 time(s)
Antarctica


ЦИТАТА(vosmidesijatye @ Sep 18 2023, 13:36:01) *
Шоб как в Англии (IMG:style_emoticons/default/bye.gif)

В нынешние времена весьма странное желание (IMG:style_emoticons/default/21.gif)
Go to the top of the page
  Insert nick Quick quote
+Quote Post
post Sep 19 2023, 18:54:33
Post #5

Семь Литров
*******
Group: Металариец
Posts: 779
Releases: 0
On Forums: 14 years 2 months
Thanks: 197 time(s)
Ukraine


Спасибо,получилось у ребят!!
Go to the top of the page
  Insert nick Quick quote
+Quote Post
post Sep 24 2023, 08:25:35
Post #6

Три Литра
***
Group: Завсегдатай
Posts: 279
Releases: 0
From: Kiev
On Forums: 14 years 8 months
Thanks: 66 time(s)
Ukraine


ЦИТАТА(avather @ Sep 18 2023, 23:31:45) *
В нынешние времена весьма странное желание (IMG:style_emoticons/default/21.gif)

Почему ?
Go to the top of the page
  Insert nick Quick quote
+Quote Post
post Sep 24 2023, 16:54:11
Post #7

Девять Литров
*********
Group: Металариец
Posts: 957
Releases: 0
From: Лыткарино
On Forums: 4 years 4 months
Thanks: 265 time(s)
Russian Federation


Хороший альбом - бодро, мелодично, с духом 80-х, всё как заявлено). 9/10
Go to the top of the page
  Insert nick Quick quote
+Quote Post

Reply to this topicStart new topic
1 User(s) are reading this topic (1 Guests and 0 Anonymous Users)
0 Members:

 



- Lo-Fi Version Support form
Copyrights and abuse reports form
Time is now: 26th September 2023 - 01:09:51