Welcome Guest ( Log In | Register )

> Desperate Days Of Dying - Nothing, Despair, That's All (2023), Sludge/Doom Metal
post Sep 17 2023, 17:16:21
Post #1

Правь статус, ####!111
**************
Group: Металариец
Posts: 7,252
Releases: 6633
From: Одесса
On Forums: 15 years 8 months
Thanks: 77166 time(s)
Ukraine


(IMG:https://metalarea.org/images/audiocovers/2023_Sep/acov_tid386335_thumb.jpg)

*Artist: Desperate Days Of Dying
*Album: Nothing, Despair, That's All
*Year: 2023
*Genre: Sludge/Doom Metal
*Country: Japan (IMG:https://metalarea.org/forum/style_images/flags/Japan.png)
*Format: mp3@CBR320kbps
*Size: 90MB

Tracklist:
1. Invariably Bad Things Happen 04:42
2. After All, Life Is Just This 03:48
3. The Habit of Losing Is Terrible 04:13
4. I Know My Limits 05:02
5. There's No Place for Me 04:54
6. Old Generation Losers 04:12
7. Even Irony Is Heavy on the Gray Life 01:35
8. We'll Never Understand Each Other 05:05
9. I'm Tired of the Setbacks 03:53
******************************
Total playing time: 37:24



Technical info
(IMG:https://metalarea.org/images/spectrogram/2023_Sep/2d17f8e6038a23873a7f7a11185f1f0c.png)
Input File: 08. We\'ll Never Understand Each Other.mp3
Channels : 2
Sample Rate : 44100
Precision : 16-bit
Duration : 00:05:05.08 = 13453940 samples = 22880.9 CDDA sectors
File Size : 12.2M
Bit Rate : 320k
Sample Encoding: MPEG audio (layer I, II or III)
Comments :
Title=We'll Never Understand Each Other
Artist=Desperate Days of Dying
Album=Nothing, Despair, That's All
Tracknumber=8
Year=2023
Genre=Sludge | Doom Metal



Register


Go to the top of the page
  Insert nick Quick quote
+Quote Post
 
Start new topic
Replies (1 - 1)
post Sep 18 2023, 11:40:28
Post #2

Правь статус, ####!111
**************
Group: Металариец
Posts: 55,387
Releases: 1153
On Forums: 14 years 8 months
Thanks: 53777 time(s)
Russian Federation


Тужащийся задушенный вокал не в кассу, да и музло третьесортное.
Go to the top of the page
  Insert nick Quick quote
+Quote Post

Reply to this topicStart new topic
1 User(s) are reading this topic (1 Guests and 0 Anonymous Users)
0 Members:

 



- Lo-Fi Version Support form
Copyrights and abuse reports form
Time is now: 23rd February 2024 - 11:56:41