Welcome Guest ( Log In | Register )

> Sviatibor - Live Rehearsal 2023 [demo] (2023), Pagan Black Metal (D17)
post Sep 17 2023, 17:35:55
Post #1

Правь статус, ####!111
**************
Group: Металариец
Posts: 6,961
Releases: 6366
From: Одесса
On Forums: 15 years 6 months
Thanks: 74563 time(s)
Ukraine


(IMG:https://metalarea.org/images/audiocovers/2023_Sep/acov_tid386336_thumb.png)

*Artist: Sviatibor
*Album: Live Rehearsal 2023 [demo]
*Year: 2023
*Genre: Pagan Black Metal
*Country: France (IMG:https://metalarea.org/forum/style_images/flags/France.png)
*Format: mp3@CBR320kbps
*Size: 101MB

Tracklist:
1. La Cité d'Arkona 08:24
2. Armies of a Luminous Eye 05:26
3. Above Blackened Skies 06:23
4. Perdu à Travers les Branches du Temps 06:07
5. Yore Resonating 05:44
6. La Lumière Ancestrale 01:59
7. L'Étoile 08:17
******************************
Total playing time: 42:20



Extended info
Line - up:

Léo Appaix - Drums
Thomas Hornstein - Vocals, All instruments (Nervengeist, ex-Tempt Fate)

Raw, intimate, flawed, powerful and authentic. 3 mics in a room, zero edit and tons of relentless energy : dive into the band's intimacy with this live rehearsal session, recorded in August 2023.


Technical info
(IMG:https://metalarea.org/images/spectrogram/2023_Sep/61e6e5a7ba2544782dad379c98329699.png)
Input File: 03. Above Blackened Skies (Live rehearsal 2023).mp3
Channels : 2
Sample Rate : 44100
Precision : 16-bit
Duration : 00:06:23.68 = 16920464 samples = 28776.3 CDDA sectors
File Size : 15.4M
Bit Rate : 321k
Sample Encoding: MPEG audio (layer I, II or III)
Comments :
Title=Above Blackened Skies (Live rehearsal 2023)
Artist=Sviatibor
Album=Live rehearsal 2023 (Demo)
Tracknumber=3
Year=2023
Genre=Pagan Black Metal | Ambient



Register


Go to the top of the page
  Insert nick Quick quote
+Quote Post
 
Start new topic
Replies (1 - 1)
post Sep 21 2023, 03:39:28
Post #2
BAN
Banned till
Dec 23 2023, 17:56:05



Неплохой лайв, жаль что звук такой корявый, им по статусу не положено в подвале записывать даже демки. Ну ещё отчётливо выраженный атмоблэк в вокале отталкивает, в инструментальной части также немало его и он не напрягает так.
Go to the top of the page
  Insert nick Quick quote
+Quote Post

Reply to this topicStart new topic
2 User(s) are reading this topic (2 Guests and 0 Anonymous Users)
0 Members:

 



- Lo-Fi Version Support form
Copyrights and abuse reports form
Time is now: 9th December 2023 - 13:29:40