Welcome Guest ( Log In | Register )

> Releases Upload / Добавление релизов

Добавить релиз тут / Click here to add release
Рекомендованные обменники / Recommended file shares

> Demonsmoke - Inebriated Muff [single] (2023), Sludge/Doom Metal
post Sep 17 2023, 18:30:39
Post #1

Правь статус, ####!111
**************
Group: Металариец
Posts: 6,768
Releases: 6191
From: Одесса
On Forums: 15 years 4 months
Thanks: 72429 time(s)
Ukraine


(IMG:https://metalarea.org/images/audiocovers/2023_Sep/acov_tid386338_thumb.jpg)

*Artist: Demonsmoke
*Album: Inebriated Muff [single]
*Year: 2023
*Genre: Sludge/Doom Metal
*Country: United States (IMG:https://metalarea.org/forum/style_images/flags/United%20States.png)
*Format: flac
*Size: 40MB

Tracklist:
1. Inebriated Muff 05:03
******************************
Total playing time: 5:03



Extended info
Line - up:

Boug - Bass
Mitch - Drums
Cam - Vocals
Spencer - Guitars

First single off our upcoming sophomore album, coming Spring 2024


Technical info
(IMG:https://metalarea.org/images/spectrogram/2023_Sep/e84e8bce537175e7b27525a5e1cf52f6.png)
Input File: 01 Inebriated Muff.flac
Channels : 2
Sample Rate : 44100
Precision : 16-bit
Duration : 00:05:03.94 = 13403611 samples = 22795.3 CDDA sectors
File Size : 39.5M
Bit Rate : 1.04M
Sample Encoding: 16-bit FLAC
Comments :
Genre=Sludge | Doom Metal
TrackNumber=01
Date=2023
Title=Inebriated Muff
Artist=Demonsmoke
Album=Inebriated Muff (Single)
Description=



Register


Go to the top of the page
  Insert nick Quick quote
+Quote Post
 
Start new topic
Replies (1 - 6)
post Sep 18 2023, 06:45:27
Post #2

Русский
*******
Group: Металариец
Posts: 760
Releases: 0
From: Москва
On Forums: 17 years 1 month
Thanks: 225 time(s)
Russian Federation


отлично же


Thanks:
Go to the top of the page
  Insert nick Quick quote
+Quote Post
post Sep 18 2023, 10:57:36
Post #3
BAN
Banned till
Oct 8 2023, 17:05:32



Да, полноформат у этой группы мега сытный.
Go to the top of the page
  Insert nick Quick quote
+Quote Post
post Sep 18 2023, 11:47:03
Post #4
BAN
Banned till
Oct 8 2023, 17:05:32



Идеальный трэк. С нетерпением ждем полноформат (обещают весной 2024).
Go to the top of the page
  Insert nick Quick quote
+Quote Post
post Sep 18 2023, 12:26:47
Post #5

Два Литра
**
Group: Завсегдатай
Posts: 184
Releases: 0
From: Москва
On Forums: 17 years 1 week
Thanks: 56 time(s)
Russian Federation


Облогу походу нейросеть рисовала.
Go to the top of the page
  Insert nick Quick quote
+Quote Post
post Sep 18 2023, 12:27:39
Post #6
BAN
Banned till
Oct 8 2023, 17:05:32



ЦИТАТА(Biomechanik @ Sep 18 2023, 14:26:47) *
Облогу походу нейросеть рисовала.


Пущай так, зато она идеально отображает мгакобесное музыкальное содержимое. (IMG:style_emoticons/default/bye.gif)
Go to the top of the page
  Insert nick Quick quote
+Quote Post
post Sep 18 2023, 20:11:03
Post #7

Русский
*******
Group: Металариец
Posts: 760
Releases: 0
From: Москва
On Forums: 17 years 1 month
Thanks: 225 time(s)
Russian Federation


пропустил дебютник.слямзал аифф до кучи у них. всё как надо.не стыдно включить гостям.
Go to the top of the page
  Insert nick Quick quote
+Quote Post

Reply to this topicStart new topic
2 User(s) are reading this topic (2 Guests and 0 Anonymous Users)
0 Members:

 



- Lo-Fi Version Support form
Copyrights and abuse reports form
Time is now: 5th October 2023 - 03:18:38