Welcome Guest ( Log In | Register )

> Dark Sky Burial - Pulvis Et Umbra Sumus (2023), Electronic/Industrial (D5)
post Sep 17 2023, 19:05:56
Post #1

Мегаманьяк
***********
Group: Металариец
Posts: 1,780
Releases: 95
From: Санкт-Петербург
On Forums: 17 years 6 months
Thanks: 4799 time(s)
Russian Federation


(IMG:https://metalarea.org/images/audiocovers/2023_Sep/acov_tid386340_thumb.jpg)

*Artist: Dark Sky Burial
*Album: Pulvis Et Umbra Sumus
*Year: 2023
*Genre: Electronic/Industrial
*Country: United Kingdom (IMG:https://metalarea.org/forum/style_images/flags/United%20Kingdom.png)
*Format: mp3@CBR320kbps
*Size: 105MB

Tracklist:
01. The Sum Of Our Choices 04:11
02. Together Again In The Underworld 04:21
03. Indestructible Foundation 05:10
04. A Cure Is A Taste Of The Disease 03:21
05. Depression Capsule 04:11
06. Sucubus 04:03
07. Leave Me Be Parasite 06:06
08. I Dream With Ghosts 04:09
09. Pulvis Et Umbra Sumus 05:26
10. Sorrow Seeker 04:07
******************************
Total playing time: 45:06



Extended info
Второй альбом в этом году от сольного проекта Шейна Эмбьюри. Продолжение следует...


Technical info
(IMG:https://metalarea.org/images/spectrogram/2023_Sep/4b909eed25b9f529c2ee7966bdbd2674.png)
Input File: 02 - Together Again In The Underworld.mp3
Channels : 2
Sample Rate : 44100
Precision : 16-bit
Duration : 00:04:20.95 = 11508071 samples = 19571.5 CDDA sectors
File Size : 10.7M
Bit Rate : 328k
Sample Encoding: MPEG audio (layer I, II or III)
Comments :
Title=Together Again In The Underworld
Artist=Dark Sky Burial
Album=Pulvis Et Umbra Sumus
Tracknumber=02
Year=2023
Genre=Electronic/Industrial



Register


Go to the top of the page
  Insert nick Quick quote
+Quote Post
 
Start new topic
Replies (1 - 6)
post Sep 18 2023, 13:48:53
Post #2

Два Литра
**
Group: Завсегдатай
Posts: 129
Releases: 0
On Forums: 14 years 5 months
Thanks: 18 time(s)
Russian Federation


Второй? Или третий? А вот это Nascentes Morimur, Morientes Nascimur
Go to the top of the page
  Insert nick Quick quote
+Quote Post
post Sep 18 2023, 15:04:34
Post #3

Мегаманьяк
***********
Group: Металариец
Posts: 1,780
Releases: 95
From: Санкт-Петербург
On Forums: 17 years 6 months
Thanks: 4799 time(s)
Russian Federation


ЦИТАТА(Zhelezjaka @ 18th September 2023 - 15:48:53) *
Второй? Или третий? А вот это Nascentes Morimur, Morientes Nascimur

Этот альбом - второй, а третий в неформате лежит., где и этому самое место.
Go to the top of the page
  Insert nick Quick quote
+Quote Post
post Nov 2 2023, 23:34:23
Post #4

Правь статус, ####!111
**************
Group: Металариец
Posts: 3,364
Releases: 0
On Forums: 8 years 7 months
Thanks: 4979 time(s)
Russian Federation


Электронщина, что она тут делает ?! (IMG:style_emoticons/default/hmm.gif)
Go to the top of the page
  Insert nick Quick quote
+Quote Post
post Nov 2 2023, 23:58:30
Post #5

Ледоруб
**************
Group: Металариец
Posts: 33,149
Releases: 0
From: Санкт-Петербург
On Forums: 14 years 2 months
Thanks: 11625 time(s)
Russian Federation


ЦИТАТА(METALHUNTER @ 3rd November 2023 - 01:34:23) *
Электронщина, что она тут делает ?!

Олдскулы свело, да?


Thanks:
(1) philfoden,
Go to the top of the page
  Insert nick Quick quote
+Quote Post
post Nov 4 2023, 22:02:41
Post #6

Правь статус, ####!111
**************
Group: Металариец
Posts: 3,364
Releases: 0
On Forums: 8 years 7 months
Thanks: 4979 time(s)
Russian Federation


ЦИТАТА(6666666 @ Nov 3 2023, 03:58:30) *
Олдскулы свело, да?

Ну из электронной музыки слушаю The Prodigy и Depeche Mode, может ещё что-то по мелочам, так что мимо.
Go to the top of the page
  Insert nick Quick quote
+Quote Post
post Nov 5 2023, 00:09:55
Post #7

Ледоруб
**************
Group: Металариец
Posts: 33,149
Releases: 0
From: Санкт-Петербург
On Forums: 14 years 2 months
Thanks: 11625 time(s)
Russian Federation


ЦИТАТА(METALHUNTER @ 5th November 2023 - 00:02:41) *
Ну из электронной музыки слушаю The Prodigy и Depeche Mode

Смешно и не мимо.


Thanks:
(1) philfoden,
Go to the top of the page
  Insert nick Quick quote
+Quote Post

Reply to this topicStart new topic
1 User(s) are reading this topic (1 Guests and 0 Anonymous Users)
0 Members:

 



- Lo-Fi Version Support form
Copyrights and abuse reports form
Time is now: 6th December 2023 - 18:27:58