Welcome Guest ( Log In | Register )

 
Reply to this topicStart new topic
> Hirkum - Hirkum (2023), Sludge
post Sep 17 2023, 19:09:22
Post #1

Правь статус, ####!111
**************
Group: Металариец
Posts: 7,252
Releases: 6633
From: Одесса
On Forums: 15 years 8 months
Thanks: 77155 time(s)
Ukraine


(IMG:https://metalarea.org/images/audiocovers/2023_Sep/acov_tid386341_thumb.jpg)

*Artist: Hirkum
*Album: Hirkum
*Year: 2023
*Genre: Sludge
*Country: Mexico (IMG:https://metalarea.org/forum/style_images/flags/Mexico.png)
*Format: mp3@CBR320kbps
*Size: 125MB

Tracklist:
1. Hellhound 04:44
2. Mythomane 03:43
3. Die Trying 04:01
4. Screaming Skull 07:31
5. Katharsis 05:25
6. The Horned One 06:09
7. Anhedonia 07:43
8. 13 Cabras 03:48
9. Hirkum 04:31
10. Moloch's Theme 04:17
******************************
Total playing time: 51:52



Extended info
Line - up:

Daniel Archundia - Drums
Volkh Vilchis - Vocals, Guitars, Bass

Hirkum, who specialize in the Heavy Psych and Doom/Sludge Metal style, infuse their music with a raw, uncompromising intensity.

Through themes of existential dread, fantasy, and personal struggle, their music takes listeners on a trip through the depths of darkness with gloomy, dismal settings. Their songs express the grimness of the human condition with a sense of melancholy and despair.

Hirkum stands out as a true innovator in the broad world of Metal music, pushing the boundaries of the style and producing music that is both sonically alluring and emotionally intense.

Fans of Metal and Psychedelia, as well as those looking for a complete musical experience might relate to this music.


Technical info
(IMG:https://metalarea.org/images/spectrogram/2023_Sep/17addff80489613f294eb56287f850d6.png)
Input File: 07-hirkum-anhedonia-01a485e3.mp3
Channels : 2
Sample Rate : 44100
Precision : 16-bit
Duration : 00:07:43.18 = 20426194 samples = 34738.4 CDDA sectors
File Size : 18.5M
Bit Rate : 320k
Sample Encoding: MPEG audio (layer I, II or III)
Comments :
Title=Anhedonia
Artist=Hirkum
Album=Hirkum
Tracknumber=7
Year=2023
Genre=Sludge Metal



Register


Go to the top of the page
  Insert nick Quick quote
+Quote Post

Reply to this topicStart new topic
2 User(s) are reading this topic (2 Guests and 0 Anonymous Users)
0 Members:

 



- Lo-Fi Version Support form
Copyrights and abuse reports form
Time is now: 23rd February 2024 - 11:35:14