Welcome Guest ( Log In | Register )

 
Reply to this topicStart new topic
> Eczema - Visceral 1. La Mala Conformidad (2023), Progressive/Technical Death Metal (D)
post Sep 18 2023, 01:32:44
Post #1

Правь статус, ####!111
**************
Group: Металариец
Posts: 8,238
Releases: 6492
On Forums: 13 years 3 months
Thanks: 113322 time(s)
Italy


(IMG:https://metalarea.org/images/audiocovers/2023_Sep/acov_tid386349_thumb.jpg)

*Artist: Eczema
*Album: Visceral 1. La Mala Conformidad
*Year: 2023
*Genre: Progressive/Technical Death Metal
*Country: Spain (IMG:https://metalarea.org/forum/style_images/flags/Spain.png)
*Format: mp3@CBR320kbps
*Size: 65MB

Tracklist:
1.Por la culpa 05:26
2.Deseé tu muerte 05:51
3.Mi gran mal 06:15
4.Dentro miré 04:11
5.Oración 05:19
******************************
Total playing time: 27:02

(IMG:https://metalarea.org/images/youtube.png)

Technical info
(IMG:https://metalarea.org/images/spectrogram/2023_Sep/19a7484430577ae146cf6cc399af007d.png)
Input File: 4.Dentro miré.mp3
Channels : 2
Sample Rate : 44100
Precision : 16-bit
Duration : 00:04:11.29 = 11081801 samples = 18846.6 CDDA sectors
File Size : 10.7M
Bit Rate : 341k
Sample Encoding: MPEG audio (layer I, II or III)
Comments :
Title=Dentro miré
Artist=Eczema
Album=VISCERAL 1. La mala conformidad
Tracknumber=4/5
Year=2023
Discnumber=1/1



Register


Go to the top of the page
  Insert nick Quick quote
+Quote Post

Reply to this topicStart new topic
2 User(s) are reading this topic (2 Guests and 0 Anonymous Users)
0 Members:

 



- Lo-Fi Version Support form
Copyrights and abuse reports form
Time is now: 23rd February 2024 - 12:07:23