Welcome Guest ( Log In | Register )

 
Reply to this topicStart new topic
> Asmodeus - Nocturnal Manifestation Of Dracula (2023), Black Metal (D)
post Sep 18 2023, 01:35:48
Post #1

Правь статус, ####!111
**************
Group: Металариец
Posts: 8,633
Releases: 6881
On Forums: 13 years 4 months
Thanks: 120718 time(s)
Italy


(IMG:https://metalarea.org/images/audiocovers/2023_Sep/acov_tid386350_thumb.jpg)

*Artist: Asmodeus
*Album: Nocturnal Manifestation Of Dracula
*Year: 2023
*Genre: Black Metal
*Country: Spain (IMG:https://metalarea.org/forum/style_images/flags/Spain.png)
*Format: mp3@CBR320kbps
*Size: 109MB

Tracklist:
1.Isbiliyya 05:28
2.Incantation 03:51
3.Vampyre 03:23
4.Vampyres of Transylvania 03:32
5.War in Iberia 03:21
6.Isbiliyya II 07:34
7.Nocturnal Manifestation of Dracula 03:30
8.Maleficient Vampyrical Nights 03:37
9.Night of Hunger 04:42
10.The Tale from a Vampyre's Love 03:20
11.Nosferatu Waltz 04:35
******************************
Total playing time: 46:53



Technical info
(IMG:https://metalarea.org/images/spectrogram/2023_Sep/bfc3dd33417529c5f9931f9adb89758e.png)
Input File: 2.Incantation.mp3
Channels : 2
Sample Rate : 44100
Precision : 16-bit
Duration : 00:03:51.38 = 10203946 samples = 17353.6 CDDA sectors
File Size : 9.58M
Bit Rate : 331k
Sample Encoding: MPEG audio (layer I, II or III)
Comments :
Title=Incantation
Artist=Asmodeus
Album=Nocturnal Manifestation of Dracula
Tracknumber=2/11
Year=2023
Discnumber=1/1



Register


Go to the top of the page
  Insert nick Quick quote
+Quote Post

Reply to this topicStart new topic
1 User(s) are reading this topic (1 Guests and 0 Anonymous Users)
0 Members:

 



- Lo-Fi Version Support form
Copyrights and abuse reports form
Time is now: 14th April 2024 - 08:18:09