Welcome Guest ( Log In | Register )

 
Reply to this topicStart new topic
> Naqke - Old House Memories (2023), Raw Black Metal/Dungeon Synth
post Sep 18 2023, 11:52:55
Post #1

Правь статус, ####!111
**************
Group: Металариец
Posts: 8,235
Releases: 6489
On Forums: 13 years 3 months
Thanks: 113295 time(s)
Italy


(IMG:https://metalarea.org/images/audiocovers/2023_Sep/acov_tid386353_thumb.jpg)

*Artist: Naqke
*Album: Old House Memories
*Year: 2023
*Genre: Raw Black Metal/Dungeon Synth
*Country: Brazil (IMG:https://metalarea.org/forum/style_images/flags/Brazil.png)
*Format: mp3@CBR320kbps
*Size: 80MB

Tracklist:
1.Source (Intro) 01:27
2.River of Lies 04:27
3.Ethereal Winds 03:32
4.Forest of The Damned Souls 04:48
5.Eternal Loneliness 02:59
6.Through The Valley of Lonely 04:35
7.Choir of The Void 08:40
8.In The End of Void 03:29
******************************
Total playing time: 33:57



Technical info
(IMG:https://metalarea.org/images/spectrogram/2023_Sep/ac3ae6e30c569e3adb1b0589748b173f.png)
Input File: 4.Forest of The Damned Souls.mp3
Channels : 2
Sample Rate : 44100
Precision : 16-bit
Duration : 00:04:48.07 = 12703931 samples = 21605.3 CDDA sectors
File Size : 11.9M
Bit Rate : 331k
Sample Encoding: MPEG audio (layer I, II or III)
Comments :
Title=Forest of The Damned Souls
Artist=Naqke
Album=Old House Memories
Tracknumber=4/8
Year=2023
Discnumber=1/1



Register


Go to the top of the page
  Insert nick Quick quote
+Quote Post

Reply to this topicStart new topic
1 User(s) are reading this topic (1 Guests and 0 Anonymous Users)
0 Members:

 



- Lo-Fi Version Support form
Copyrights and abuse reports form
Time is now: 23rd February 2024 - 10:40:39