Welcome Guest ( Log In | Register )

> Cerebrium - The Happiest Days (2023), Blackened Dark/Doom Metal
post Sep 18 2023, 12:03:08
Post #1

Правь статус, ####!111
**************
Group: Металариец
Posts: 8,274
Releases: 6528
On Forums: 13 years 3 months
Thanks: 114203 time(s)
Italy


(IMG:https://metalarea.org/images/audiocovers/2023_Sep/acov_tid386354_thumb.jpg)

*Artist: Cerebrium
*Album: The Happiest Days
*Year: 2023
*Genre: Blackened Dark/Doom Metal
*Country: Russian Federation (IMG:https://metalarea.org/forum/style_images/flags/Russian%20Federation.png)
*Format: mp3@CBR320kbps
*Size: 101MB

Tracklist:
1.The Happiest Day 04:02
2.Lust for Life 03:44
3.Generation P 03:15
4.The Good News 02:34
5.Inevitable Joy 04:20
6.Rejoice 06:26
7.У природы нет плохой погоды [feat. Morgana] 03:57
8.AlcoHoly 04:44
9.Peace and Love [Everything Ends] 05:03
10.Wonderful Life [The Black cover] 05:00
******************************
Total playing time: 43:05



Extended info
Line up:
Dennis Green Drums (2014-present)
See also: Bog Morok, Babooshka, Lunatique
Morok Guitars, Bass, Vocals, Keyboards (2014-present)
See also: Bethlehem, Bog Morok, Morguenstern, Shexna, Во Скорбях, Babooshka, Downgrade, Flammenform 36


Technical info
(IMG:https://metalarea.org/images/spectrogram/2023_Sep/8e056da9bc87208b3d18f5862c4dc4c0.png)
Input File: 8.AlcoHoly.mp3
Channels : 2
Sample Rate : 44100
Precision : 16-bit
Duration : 00:04:44.21 = 12533441 samples = 21315.4 CDDA sectors
File Size : 11.6M
Bit Rate : 328k
Sample Encoding: MPEG audio (layer I, II or III)
Comments :
Title=AlcoHoly
Artist=Cerebrium
Album=The Happiest Days
Tracknumber=8/10
Year=2023
Discnumber=1/1



Register


Go to the top of the page
  Insert nick Quick quote
+Quote Post
 
Start new topic
Replies (1 - 1)
post Sep 19 2023, 12:14:21
Post #2

Аннигилятор пивА
Group Icon
Group: V.I.P
Posts: 52,548
Releases: 16538
From: Koenigsberg - TILZIT
On Forums: 17 years 9 months
Thanks: 371632 time(s)
Russian Federation


опа опа этож челы из Babooshka, два хита сразу нашел, 7 и 8 й трэки, в 7м кстати на вокале телка из бабушки тоже, я даже не знал, что Морок наяривает в немецком Бетлхэме, собственно местами есть отсылы
Go to the top of the page
  Insert nick Quick quote
+Quote Post

Reply to this topicStart new topic
1 User(s) are reading this topic (1 Guests and 0 Anonymous Users)
0 Members:

 



- Lo-Fi Version Support form
Copyrights and abuse reports form
Time is now: 29th February 2024 - 04:19:02