Welcome Guest ( Log In | Register )

 
Reply to this topicStart new topic
> Ёndёmical Ёccёntricity - Cringe Metal (2023), Death Metal
post Sep 18 2023, 14:52:50
Post #1

Правь статус, ####!111
**************
Group: Металариец
Posts: 8,236
Releases: 6489
On Forums: 13 years 3 months
Thanks: 113298 time(s)
Italy


(IMG:https://metalarea.org/images/audiocovers/2023_Sep/acov_tid386355_thumb.jpg)

*Artist: Ёndёmical Ёccёntricity
*Album: Cringe Metal
*Year: 2023
*Genre: Death Metal
*Country: Russian Federation (IMG:https://metalarea.org/forum/style_images/flags/Russian%20Federation.png)
*Format: mp3@CBR320kbps
*Size: 89MB

Tracklist:
1.Помойный погост 03:53
2.Гетто-рандеву с незнакомкой 03:28
3.Страх и ненависть в ПАЗ-3205 03:16
4.Государыня Рыбка [Мисс Анти-Эпидермис] 03:43
5.DP [Dважды Prедавшая] 02:35
6.Зело! Фрагмент №1: Зелофилическая свингер-оргия 02:48
7.Псевдопосредственность 02:52
8.Сплинтерлюдия 01:19
9.sXe-ралли [Антитабака-ссан] 04:12
10.БДСМ-ТТ (Боязнь добросовестно сделать минет трелёвочному трактору) 05:01
11. Трансцендентный психоалконавт 04:17
******************************
Total playing time: 37:24

Preview 1

Technical info
(IMG:https://metalarea.org/images/spectrogram/2023_Sep/384091efd60553ead4177d586d5545ce.png)
Input File: 2.Гетто-рандеву с незнакомкой.mp3
Channels : 2
Sample Rate : 44100
Precision : 16-bit
Duration : 00:03:27.58 = 9154410 samples = 15568.7 CDDA sectors
File Size : 8.63M
Bit Rate : 333k
Sample Encoding: MPEG audio (layer I, II or III)
Comments :
Title=Гетто-рандеву с незнакомкой
Artist=Ёndёmical Ёccёntricity
Album=Cringe Metal
Tracknumber=2/11
Year=2023
Discnumber=1/1



Register


Go to the top of the page
  Insert nick Quick quote
+Quote Post

Reply to this topicStart new topic
1 User(s) are reading this topic (1 Guests and 0 Anonymous Users)
0 Members:

 



- Lo-Fi Version Support form
Copyrights and abuse reports form
Time is now: 23rd February 2024 - 10:52:44