Welcome Guest ( Log In | Register )

 
Reply to this topicStart new topic
> Tagrest - To Bask In Heroic Tales Of Yore (2023), Epic/Melodic Black Metal
post Sep 18 2023, 16:55:04
Post #1

Правь статус, ####!111
**************
Group: Металариец
Posts: 35,068
Releases: 26079
From: Г.Харьков
On Forums: 11 years 9 months
Thanks: 561153 time(s)
Ukraine


(IMG:https://metalarea.org/images/audiocovers/2023_Sep/acov_tid386357_thumb.jpg)

*Artist: Tagrest
*Album: To Bask In Heroic Tales Of Yore
*Year: 2023
*Genre: Epic/Melodic Black Metal
*Country: Morocco (IMG:https://metalarea.org/forum/style_images/flags/Morocco.png)
*Format: mp3@CBR320kbps
*Size: 97MB

Tracklist:
1. Ashen Pharos 01:51 instrumental
2. Anfa Imziki 06:14
3. Land of the Dying Sun 05:00
4. At the Ghastly Shores 05:30
5. Casablack Metal 05:01
6. Amerruk (Interlude) 01:18 instrumental
7. Solemn Retribution 06:12
8. Amastan ( The Protector ) 10:40
******************************
Total playing time: 41:46




Extended info
Anachronik Guitars, Drum programming, Bass
Abyssal Emperor Vocals, Bass
Artwood Drums


Technical info
(IMG:https://metalarea.org/images/spectrogram/2023_Sep/5f7252126748c245527d8fd60e60c18c.png)
Input File: 07 - Solemn Retribution.mp3
Channels : 2
Sample Rate : 44100
Precision : 16-bit
Duration : 00:06:12.00 = 16405200 samples = 27900 CDDA sectors
File Size : 15.0M
Bit Rate : 323k
Sample Encoding: MPEG audio (layer I, II or III)
Comments :
Title=Solemn Retribution
Artist=Tagrest
Album=To Bask in Heroic Tales of Yore
Tracknumber=7
Year=2023-09-05
Genre=メタル
Discnumber=1



Register


Go to the top of the page
  Insert nick Quick quote
+Quote Post

Reply to this topicStart new topic
2 User(s) are reading this topic (2 Guests and 0 Anonymous Users)
0 Members:

 



- Lo-Fi Version Support form
Copyrights and abuse reports form
Time is now: 29th February 2024 - 03:17:21