Welcome Guest ( Log In | Register )

> Releases Upload / Добавление релизов

Добавить релиз тут / Click here to add release
Рекомендованные обменники / Recommended file shares

 
Reply to this topicStart new topic
> Dying Kings - Dying Kings [demo] (2022), Black/Death Metal
post Sep 18 2023, 18:07:33
Post #1

Правь статус, 616
**************
Group: Металариец
Posts: 9,765
Releases: 7910
From: 55°35’N 38°08’E
On Forums: 15 years 2 months
Thanks: 140362 time(s)
Russian Federation


(IMG:https://metalarea.org/images/audiocovers/2023_Sep/acov_tid386359_thumb.jpg)

*Artist: Dying Kings
*Album: Dying Kings [demo]
*Year: 2022
*Genre: Black/Death Metal
*Country: Australia (IMG:https://metalarea.org/forum/style_images/flags/Australia.png)
*Format: mp3@CBR320kbps
*Size: 37MB

Tracklist:
1. War 03:33
2. Departer 04:30
3. Day of War Day of Life 04:25
4. Evil 03:08
******************************
Total playing time: 15:36



(IMG:https://metalarea.org/images/youtube.png)

Technical info
(IMG:https://metalarea.org/images/spectrogram/2023_Sep/7a4e5a632863c433fa9faf73f0e80f2e.png)
Input File: 02 Departer.mp3
Channels : 2
Sample Rate : 44100
Precision : 16-bit
Duration : 00:04:30.07 = 11910175 samples = 20255.4 CDDA sectors
File Size : 11.0M
Bit Rate : 325k
Sample Encoding: MPEG audio (layer I, II or III)
Comments :
Title=Departer
Artist=Dying Kings
Album=Dying Kings
Tracknumber=2
Year=2022
Genre=Black Metal



Register


Go to the top of the page
  Insert nick Quick quote
+Quote Post

Reply to this topicStart new topic
1 User(s) are reading this topic (1 Guests and 0 Anonymous Users)
0 Members:

 



- Lo-Fi Version Support form
Copyrights and abuse reports form
Time is now: 5th October 2023 - 03:49:58