Welcome Guest ( Log In | Register )

> Dudsekop - Liksems (2022), Metalcore/Black Metal
post Sep 18 2023, 23:56:06
Post #1

Absorbence
**************
Group: Металариец
Posts: 2,540
Releases: 664
From: Vastland Abyss of Cthulhu
On Forums: 17 years 4 weeks
Thanks: 10890 time(s)
United States


(IMG:https://metalarea.org/images/audiocovers/2023_Sep/acov_tid386370_thumb.jpg)

*Artist: Dudsekop
*Album: Liksems
*Year: 2022
*Genre: Metalcore/Black Metal
*Country: Belgium (IMG:https://metalarea.org/forum/style_images/flags/Belgium.png)
*Format: mp3@CBR320kbps
*Size: 62MB

Tracklist:
01. N Dood Up Getepootn 2:17
02. Dran 3:16
03. Tranendal 2:36
04. Koavezwort 3:23
05. Cauchemar 3:18
06. Huidhonger 1:03
07. Liksems 4:09
08. Gin Roste Noagel 3:08
09. Verweir 4:03
******************************
Total playing time: 27:13

Preview 1
(IMG:https://metalarea.org/images/youtube.png)

Technical info
(IMG:https://metalarea.org/images/spectrogram/2023_Sep/343b7cd7ebe04c2d22a0533b2f7f70f6.png)
Input File: 02. Dudsekop - Dran.mp3
Channels : 2
Sample Rate : 44100
Precision : 16-bit
Duration : 00:03:16.69 = 8673985 samples = 14751.7 CDDA sectors
File Size : 7.98M
Bit Rate : 324k
Sample Encoding: MPEG audio (layer I, II or III)
Comments :
Title=Dran
Artist=Dudsekop
Album=Liksems
Tracknumber=02/09
Year=2022-03-28
Genre=138



Register


Go to the top of the page
  Insert nick Quick quote
+Quote Post
 
Start new topic
Replies (1 - 1)
post Sep 19 2023, 14:28:22
Post #2

Семь Литров
*******
Group: Металариец
Posts: 726
Releases: 18
On Forums: 5 years 9 months
Thanks: 2896 time(s)
Unknown


...Aerosmith - FLAC Looks A Like Lady...

Register


Thanks:
(1) isvili,
Go to the top of the page
  Insert nick Quick quote
+Quote Post

Reply to this topicStart new topic
2 User(s) are reading this topic (2 Guests and 0 Anonymous Users)
0 Members:

 



- Lo-Fi Version Support form
Copyrights and abuse reports form
Time is now: 9th December 2023 - 12:22:34