Welcome Guest ( Log In | Register )

> Cursed Coven - Execranda Gentilitas Ibi Veneraretur (2020), Occult Doom Metal
post Sep 19 2023, 03:45:44
Post #1

Правь статус, ####!111
**************
Group: Металариец
Posts: 8,274
Releases: 6528
On Forums: 13 years 3 months
Thanks: 114202 time(s)
Italy


(IMG:https://metalarea.org/images/audiocovers/2023_Sep/acov_tid386373_thumb.jpg)

*Artist: Cursed Coven
*Album: Execranda Gentilitas Ibi Veneraretur
*Year: 2020
*Genre: Occult Doom Metal
*Country: Poland (IMG:https://metalarea.org/forum/style_images/flags/Poland.png)
*Format: mp3@VBR274kbps
*Size: 80MB

Tracklist:
1.Szlak magii zaświatowej 05:10
2.W głębi wieków cieni 04:24
3.W lesie wiecznego skowytu 04:30
4.Kapłani mglistego zmierzchu 04:06
5.Uścisk mrocznego objawienia 04:20
6.Płomienie otchłani widmowej 05:00
7.Wojenna adoracja zaćmienia 05:42
8.Urwisko księżycowych rytów 06:50
******************************
Total playing time: 40:02

(IMG:https://metalarea.org/images/youtube.png)

Extended info
Scene CD Rip


Technical info
(IMG:https://metalarea.org/images/spectrogram/2023_Sep/57c5d650554d12addaf48c89e143666d.png)
Input File: 02-cursed_coven-w_glebi_wiekow_cieni.mp3
Channels : 2
Sample Rate : 44100
Precision : 16-bit
Duration : 00:04:22.01 = 11554773 samples = 19651 CDDA sectors
File Size : 9.42M
Bit Rate : 288k
Sample Encoding: MPEG audio (layer I, II or III)
Comments :
Title=W Glebi Wieków Cieni
Artist=Cursed Coven
Album=Execranda Gentilitas Ibi Veneraretur
Tracknumber=2/8
Year=2020-03-06
Genre=Black Metal



Register


Go to the top of the page
  Insert nick Quick quote
+Quote Post
 
Start new topic
Replies (1 - 2)
post Sep 19 2023, 10:05:32
Post #2

Маньяк
**********
Group: Металариец
Posts: 1,122
Releases: 50
From: Ивантеевка, Московская область
On Forums: 16 years 2 months
Thanks: 1216 time(s)
Russian Federation


Очень достойная вещь! Вокалист очень понравился. Если бы не хреновый звук... (IMG:style_emoticons/default/6.gif) Включил на YouTube, сразу же захотелось выключить. Но затянуло так, что дослушал до конца. Спасибо.
Go to the top of the page
  Insert nick Quick quote
+Quote Post
post Sep 19 2023, 13:25:42
Post #3

Шесть Литров
******
Group: Металариец
Posts: 665
Releases: 1
On Forums: 15 years 9 months
Thanks: 391 time(s)
Russian Federation


Ощущение, что это прикол какой-то изначально был, а потом решили на серьезных щах это выпустить. Очень своеобразный релиз.
Go to the top of the page
  Insert nick Quick quote
+Quote Post

Reply to this topicStart new topic
1 User(s) are reading this topic (1 Guests and 0 Anonymous Users)
0 Members:

 



- Lo-Fi Version Support form
Copyrights and abuse reports form
Time is now: 29th February 2024 - 02:38:43