Welcome Guest ( Log In | Register )

> Deimos - Aversion For Meekness [compilation] (2023), Melodic Black/Death Metal (D11)
post Sep 19 2023, 04:22:57
Post #1

Правь статус, ####!111
**************
Group: Металариец
Posts: 8,686
Releases: 6931
On Forums: 13 years 5 months
Thanks: 121747 time(s)
Italy


(IMG:https://metalarea.org/images/audiocovers/2023_Sep/acov_tid386374_thumb.jpg)

*Artist: Deimos
*Album: Aversion For Meekness [compilation]
*Year: 2023
*Genre: Melodic Black/Death Metal
*Country: Mexico (IMG:https://metalarea.org/forum/style_images/flags/Mexico.png)
*Format: mp3@CBR320kbps
*Size: 115MB

Tracklist:
1.Wolves of Faith 05:07
2.Forbidden Gosspel 06:02
3.Carnage Religious 04:44
4.Vestiges of an Existence 05:24
5.Jure Grando 05:03
6.Aeternum 01:18
7.The Eternal Promise of the Damned 07:45
8.Malleus Maleficarum 03:43
9.Vatican Serpents 06:33
10.Aversion for Meekness 03:13
******************************
Total playing time: 48:52



Technical info
(IMG:https://metalarea.org/images/spectrogram/2023_Sep/f7ff911a9e73fa98960cb3c3f44c7df7.png)
Input File: 3.Forbidden Gospel.mp3
Channels : 2
Sample Rate : 44100
Precision : 16-bit
Duration : 00:06:00.98 = 15919350 samples = 27073.7 CDDA sectors
File Size : 15.0M
Bit Rate : 332k
Sample Encoding: MPEG audio (layer I, II or III)
Comments :
Title=Forbidden Gospel
Artist=Deimos
Album=Aversion for Meekness
Tracknumber=3/9
Year=2022
Discnumber=1/1



Register


Go to the top of the page
  Insert nick Quick quote
+Quote Post
 
Start new topic
Replies (1 - 1)
post Sep 19 2023, 14:22:55
Post #2

Восемь Литров
********
Group: Металариец
Posts: 815
Releases: 18
On Forums: 6 years 1 month
Thanks: 3217 time(s)
Unknown


...Mayhem - De Mysteriis Dom FLACanas

Register


Thanks:
Go to the top of the page
  Insert nick Quick quote
+Quote Post

Reply to this topicStart new topic
1 User(s) are reading this topic (1 Guests and 0 Anonymous Users)
0 Members:

 



- Lo-Fi Version Support form
Copyrights and abuse reports form
Time is now: 22nd April 2024 - 04:29:46