Welcome Guest ( Log In | Register )

> Դագաղ (Dagagh) - Dungeon Lust (2023), Black Metal
post Sep 19 2023, 08:08:07
Post #1

BlaSk MetaliK
**************
Group: Металариец
Posts: 2,057
Releases: 310
From: Ա-շիրիմ
On Forums: 14 years 2 months
Thanks: 5799 time(s)
Armenia


(IMG:https://metalarea.org/images/audiocovers/2023_Sep/acov_tid386376_thumb.jpg)

*Artist: Դագաղ (Dagagh)
*Album: Dungeon Lust
*Year: 2023
*Genre: Black Metal
*Country: Armenia (IMG:https://metalarea.org/forum/style_images/flags/Armenia.png)
*Format: mp3@CBR128kbps (IMG:https://metalarea.org/images/bit_low.gif)
*Size: 25MB

Tracklist:
1. It Awakens
2. Sacrificial Lunacy
3. Black Magic Worship
4. Night of the Witch
5. Bloodlust in the Dungeons of Gomorrah
6. His Power Is Pure Evil
7. Dungeon Lust
******************************
Total playing time: 26:16

Extended info
The band's name (Dagagh) means "Coffin" in Armenian.


Technical info
(IMG:https://metalarea.org/images/spectrogram/2023_Sep/56b3674acabb2ffa3d6db382db57f528.png)
Input File: 1 It Awakens .mp3
Channels : 2
Sample Rate : 44100
Precision : 16-bit
Duration : 00:01:49.00 = 4806900 samples = 8175 CDDA sectors
File Size : 2.02M
Bit Rate : 148k
Sample Encoding: MPEG audio (layer I, II or III)
Comments :
Title=It Awakens
Artist=Dagagh
Album=Dungeon Lust
Year=2023
Genre=138



Register


Go to the top of the page
  Insert nick Quick quote
+Quote Post
 
Start new topic
Replies (1 - 1)
post Sep 19 2023, 15:15:45
Post #2

Правь статус, ####!111
**************
Group: Металариец
Posts: 5,602
Releases: 632
From: MoscoW
On Forums: 16 years 9 months
Thanks: 10045 time(s)
Russian Federation


Blood Coloured Beast:


Go to the top of the page
  Insert nick Quick quote
+Quote Post

Reply to this topicStart new topic
2 User(s) are reading this topic (2 Guests and 0 Anonymous Users)
0 Members:

 



- Lo-Fi Version Support form
Copyrights and abuse reports form
Time is now: 21st September 2023 - 15:43:53