Welcome Guest ( Log In | Register )

 
Reply to this topicStart new topic
> Kontact - First Contact [ep] (2022), Heavy Metal
post Sep 19 2023, 13:52:09
Post #1

Правь статус, 616
**************
Group: Металариец
Posts: 10,370
Releases: 8428
From: 55°35’N 38°08’E
On Forums: 15 years 7 months
Thanks: 149552 time(s)
Russian Federation


(IMG:https://metalarea.org/images/audiocovers/2023_Sep/acov_tid386378_thumb.jpg)

*Artist: Kontact
*Album: First Contact [ep]
*Year: 2022
*Genre: Heavy Metal
*Country: Canada (IMG:https://metalarea.org/forum/style_images/flags/Canada.png)
*Format: mp3@CBR320kbps
*Size: 57MB

Tracklist:
1.Ancient Malice 04:56
2.The Devil in Iron 05:17
3.Heaven's Gate 04:29
4.City of the Pyramid 04:35
5.Fieldz the Sunshrine (Sacred Blade cover) 04:34
******************************
Total playing time: 23:51



(IMG:https://metalarea.org/images/youtube.png)

Technical info
(IMG:https://metalarea.org/images/spectrogram/2023_Sep/5992442a18fbb60ed5d98914c0167b83.png)
Input File: 01 Ancient Malice.mp3
Channels : 2
Sample Rate : 44100
Precision : 16-bit
Duration : 00:04:56.88 = 13092188 samples = 22265.6 CDDA sectors
File Size : 12.0M
Bit Rate : 323k
Sample Encoding: MPEG audio (layer I, II or III)
Comments :
Title=Ancient Malice
Artist=Kontact
Album=First Contact
Tracknumber=1
Year=2022
Genre=Heavy Metal



Register


Go to the top of the page
  Insert nick Quick quote
+Quote Post

Reply to this topicStart new topic
2 User(s) are reading this topic (2 Guests and 0 Anonymous Users)
0 Members:

 



- Lo-Fi Version Support form
Copyrights and abuse reports form
Time is now: 29th February 2024 - 02:26:26