Welcome Guest ( Log In | Register )

 
Reply to this topicStart new topic
> Lord Gallery - Lord Gallery [ep] (2021), Heavy Metal
post Sep 19 2023, 14:02:01
Post #1

Правь статус, 616
**************
Group: Металариец
Posts: 10,370
Releases: 8428
From: 55°35’N 38°08’E
On Forums: 15 years 7 months
Thanks: 149552 time(s)
Russian Federation


(IMG:https://metalarea.org/images/audiocovers/2023_Sep/acov_tid386379_thumb.jpg)

*Artist: Lord Gallery
*Album: Lord Gallery [ep]
*Year: 2021
*Genre: Heavy Metal
*Country: France (IMG:https://metalarea.org/forum/style_images/flags/France.png)
*Format: mp3@CBR320kbps
*Size: 69MB

Tracklist:
1.Intro 01:41
2.Lord Gallery 03:30
3.Vendean's Skin 03:19
4.Beauty Killer 05:53
5.Epidemic Hell 06:09
6.I'll Choose my Destiny 05:07
7.Bastard Heavy Metal 03:34
******************************
Total playing time: 29:13



(IMG:https://metalarea.org/images/youtube.png)

Technical info
(IMG:https://metalarea.org/images/spectrogram/2023_Sep/af8177e4f9730b0c8a5568f9fe69f08c.png)
Input File: 03 Vendean\'s Skin.mp3
Channels : 2
Sample Rate : 44100
Precision : 16-bit
Duration : 00:03:19.15 = 8782295 samples = 14935.9 CDDA sectors
File Size : 8.14M
Bit Rate : 327k
Sample Encoding: MPEG audio (layer I, II or III)
Comments :
Title=Vendean's Skin
Artist=Lord Gallery
Album=Lord Gallery
Tracknumber=3
Year=2021
Genre=Heavy Metal



Register


Go to the top of the page
  Insert nick Quick quote
+Quote Post

Reply to this topicStart new topic
1 User(s) are reading this topic (1 Guests and 0 Anonymous Users)
0 Members:

 



- Lo-Fi Version Support form
Copyrights and abuse reports form
Time is now: 29th February 2024 - 02:47:34