Welcome Guest ( Log In | Register )

 
Reply to this topicStart new topic
> Brennofen - Fir Ghreig [ep] (2023), Black/Death Metal
post Sep 19 2023, 15:48:45
Post #1

Serial Uploader
Group Icon
Group: V.I.P
Posts: 41,342
Releases: 39426
From: Lithuania
On Forums: 15 years 5 months
Thanks: 501764 time(s)
Lithuania


(IMG:https://metalarea.org/images/audiocovers/2023_Sep/acov_tid386381_thumb.jpg)

*Artist: Brennofen
*Album: Fir Ghreig [ep]
*Year: 2023
*Genre: Black/Death Metal
*Country: United States (IMG:https://metalarea.org/forum/style_images/flags/United%20States.png)
*Format: mp3@CBR320kbps
*Size: 9MB

Tracklist:
1. Ausmarsch 01:23
2. Sturmkrieger 04:22
3. Horned Steel 02:43
4. Shadowed In Murder 02:16
******************************
Total playing time: 10:44



Extended info
Free download from bandcamp in any formats


Technical info
(IMG:https://metalarea.org/images/spectrogram/2023_Sep/776bde197cd6caa2964b149065d2d9b4.png)
Input File: 03. Horned Steel.mp3
Channels : 1
Sample Rate : 44100
Precision : 16-bit
Duration : 00:02:43.80 = 7223404 samples = 12284.7 CDDA sectors
File Size : 6.72M
Bit Rate : 328k
Sample Encoding: MPEG audio (layer I, II or III)
Comments :
Title=Horned Steel
Artist=Horned Metal Records
Album=BRENNOFEN- "Fir Ghreig" EP
Tracknumber=3
Year=2023



Register


Go to the top of the page
  Insert nick Quick quote
+Quote Post

Reply to this topicStart new topic
1 User(s) are reading this topic (1 Guests and 0 Anonymous Users)
0 Members:

 



- Lo-Fi Version Support form
Copyrights and abuse reports form
Time is now: 30th November 2023 - 08:37:29