Welcome Guest ( Log In | Register )

> Kill Devil Hill - Seas Of Oblivion (2023), Heavy Metal
post Sep 19 2023, 17:43:53
Post #1

Правь статус, ####!111
**************
Group: Металариец
Posts: 35,117
Releases: 26118
From: Г.Харьков
On Forums: 11 years 9 months
Thanks: 562146 time(s)
Ukraine


(IMG:https://metalarea.org/images/audiocovers/2023_Sep/acov_tid386385_thumb.jpg)

*Artist: Kill Devil Hill
*Album: Seas Of Oblivion
*Year: 2023
*Genre: Heavy Metal
*Country: United States (IMG:https://metalarea.org/forum/style_images/flags/United%20States.png)
*Format: mp3@CBR320kbps
*Size: 153MB

Tracklist:
01. Blood In The Water 03:28
02. Before The Devil Knows 03:58
03. Playing With FIre 04:48
04. Undertow 03:28
05. Pharmaceutical Sunshine 04:23
06. Eye Of The Storm 03:49
07. Darkest Days 05:15
08. The Bitter end 05:30
09. Devil and The Deep Blue Sea 03:49
10. Seize The Day 04:52
11. You Can’t Kill Me California 03:15
12. From The Ashes 05:35
13. Stranger Than Fiction 03:50
14. Seas Of Oblivion 05:02
15. Solitude 05:06
******************************
Total playing time: 1:06:08



Extended info
Mark Zavon Guitars (2011-present)
See also: ex-W.A.S.P., ex-40 Cycle Hum, ex-Die Laughing, ex-Ratt
Jason Bragg Vocals (2011-present)
See also: Day of Errors, Moth, Smoke Hollow, Years of Cold, ex-Pissing Razors
Johnny Kelly Drums (2014-present)
See also: Danzig, Patriarchs in Black, Quiet Riot, Silvertomb, The Alien Blakk, ex-Seventh Void, ex-Type O Negative, EYE AM, ex-A Pale Horse Named Death, ex-Black Label Society, ex-Seven Witches, ex-Black Water Rising, ex-Earl's Court, ex-Pist.On (live)
Matt Snell Bass (2021-present)
See also: ex-Anubis Rising, ex-Dementia, Invidia, ex-Five Finger Death Punch



Technical info
(IMG:https://metalarea.org/images/spectrogram/2023_Sep/dbcdcf89e87f8b53a385d617c067d041.png)
Input File: 07 - Darkest Days.mp3
Channels : 2
Sample Rate : 44100
Precision : 16-bit
Duration : 00:05:14.00 = 13847400 samples = 23550 CDDA sectors
File Size : 12.7M
Bit Rate : 324k
Sample Encoding: MPEG audio (layer I, II or III)
Comments :
Title=Darkest Days
Artist=Kill Devil Hill
Album=Seas Of Oblivion
Tracknumber=7
Year=2023-09-20
Genre=メタル
Discnumber=1



Register


Go to the top of the page
  Insert nick Quick quote
+Quote Post
 
Start new topic
Replies (1 - 4)
post Sep 20 2023, 12:51:49
Post #2

Совки, гулаги, дефициты
***********
Group: Металариец
Posts: 1,891
Releases: 0
From: Беларусь, Минск
On Forums: 16 years 8 months
Thanks: 944 time(s)
Belarus


Прошлые альбомы тут хвалили, но я ничего в них не нахожу, кроме попсоватости. Слишком легковесно лично для меня.
Go to the top of the page
  Insert nick Quick quote
+Quote Post
post Sep 20 2023, 13:35:09
Post #3

Маньяк
**********
Group: Металариец
Posts: 1,150
Releases: 0
From: Нижний Новгород
On Forums: 17 years 7 months
Thanks: 459 time(s)
Russian Federation


Тыкнул в Playing with fire - 5 минут ни о чём ... ну что это за "Игры с огнём" ... вязко, не спеша. :8*
Go to the top of the page
  Insert nick Quick quote
+Quote Post
post Sep 20 2023, 13:38:48
Post #4
BAN
Banned till
Mar 3 2024, 11:01:22



ЦИТАТА(Terrorizer @ Sep 20 2023, 15:35:09) *
Playing with fire


Песня с таким названием великолепно исполнена следующим исполнителем -

Ингви Мальмстин

Аж ща врубил как ток вспомнил (IMG:style_emoticons/default/pray.gif)
Go to the top of the page
  Insert nick Quick quote
+Quote Post
post Nov 18 2023, 15:46:52
Post #5

i listen to black metal
**************
Group: Металариец
Posts: 4,019
Releases: 150
From: Москва
On Forums: 17 years 2 months
Thanks: 2621 time(s)
Russian Federation


соуф рок
Go to the top of the page
  Insert nick Quick quote
+Quote Post

Reply to this topicStart new topic
1 User(s) are reading this topic (1 Guests and 0 Anonymous Users)
0 Members:

 



- Lo-Fi Version Support form
Copyrights and abuse reports form
Time is now: 3rd March 2024 - 06:52:43