Welcome Guest ( Log In | Register )

Объявления

* gmail.com упорно продолжает считать почту с нас "unsolicited" и отбивает в том числе и письма активации, поэтому просьба использовать альтернативные почтовые ящики.
------------
* gmail.com continues reject all mail from us as "unsolicited" (activation mails too) therefore please use alternate mail servers.
> Paroxysm Unit - Promo 2021 [demo] (2021), Technical/Brutal Death Metal
post Sep 20 2023, 09:13:40
Post #1

н е д е л и м о е
**************
Group: Металариец
Posts: 2,501
Releases: 235
On Forums: 12 years 8 months
Thanks: 5231 time(s)
Russian Federation


(IMG:https://metalarea.org/images/audiocovers/2023_Sep/acov_tid386400_thumb.jpg)

*Artist: Paroxysm Unit
*Album: Promo 2021 [demo]
*Year: 2021
*Genre: Technical/Brutal Death Metal
*Country: International (IMG:https://metalarea.org/forum/style_images/flags/International.png)
*Format: mp3@CBR320kbps
*Size: 15MB

Tracklist:
1. I.K.U. Runner 02:52
2. Data Mess 03:47
******************************
Total playing time: 6:39



Extended info
bandcamp


Technical info
(IMG:https://metalarea.org/images/spectrogram/2023_Sep/5c2606138c6487b3afd7d5884257dded.png)
Input File: 02 - Data Mess.mp3
Channels : 2
Sample Rate : 44100
Precision : 16-bit
Duration : 00:03:47.36 = 10026400 samples = 17051.7 CDDA sectors
File Size : 9.09M
Bit Rate : 320k
Sample Encoding: MPEG audio (layer I, II or III)



Register


Go to the top of the page
  Insert nick Quick quote
+Quote Post
 
Start new topic
Replies (1 - 1)
post Oct 9 2023, 16:34:51
Post #2

Правь статус, ####!111
**************
Group: Металариец
Posts: 4,848
Releases: 29
From: Holland
On Forums: 17 years 11 months
Thanks: 1956 time(s)
Netherlands


В целом на альбоме оба трэка в таком же виде. Достойное промо для ознакомления.


Thanks:
(1) Occultas,
Go to the top of the page
  Insert nick Quick quote
+Quote Post

Reply to this topicStart new topic
2 User(s) are reading this topic (2 Guests and 0 Anonymous Users)
0 Members:

 



- Lo-Fi Version Support form
Copyrights and abuse reports form
Time is now: 20th June 2024 - 10:53:15