Welcome Guest ( Log In | Register )

> Crimson Butchery - Repulsive Exhibition (2023), Death Metal
post Sep 20 2023, 14:18:18
Post #1

Правь статус, ####!111
**************
Group: Металариец
Posts: 35,625
Releases: 26518
From: Г.Харьков
On Forums: 11 years 11 months
Thanks: 573442 time(s)
Ukraine


(IMG:https://metalarea.org/images/audiocovers/2023_Sep/acov_tid386412_thumb.jpg)

*Artist: Crimson Butchery
*Album: Repulsive Exhibition
*Year: 2023
*Genre: Death Metal
*Country: Ireland (IMG:https://metalarea.org/forum/style_images/flags/Ireland.png)
*Format: mp3@CBR320kbps
*Size: 82MB

Tracklist:
1. Super Illius Specula 04:34
2. Repulsive Exhibition 03:36
3. Mors Ontologica 04:30
4. Necropolis Abortum 04:06
5. Urban Cleansing 05:13
6. Regurgitated Genitals 04:13
7. Wrath 04:14
8. Sermon Of Suffering 04:25
******************************
Total playing time: 34:51



Technical info
(IMG:https://metalarea.org/images/spectrogram/2023_Sep/57eebc8317cae2239917e2276d21c238.png)
Input File: 07 - Wrath.mp3
Channels : 2
Sample Rate : 44100
Precision : 16-bit
Duration : 00:04:14.00 = 11201400 samples = 19050 CDDA sectors
File Size : 10.4M
Bit Rate : 327k
Sample Encoding: MPEG audio (layer I, II or III)
Comments :
Title=Wrath
Artist=Crimson Butchery
Album=Repulsive Exhibition
Tracknumber=7
Year=2023-09-19
Genre=メタル
Discnumber=1



Register


Go to the top of the page
  Insert nick Quick quote
+Quote Post
 
Start new topic
Replies (1 - 3)
post Sep 20 2023, 19:25:24
Post #2

Правь статус, ####!111
**************
Group: Металариец
Posts: 35,625
Releases: 26518
From: Г.Харьков
On Forums: 11 years 11 months
Thanks: 573442 time(s)
Ukraine


FLAC (Tracks) 274 mb
Register


Go to the top of the page
  Insert nick Quick quote
+Quote Post
post Sep 21 2023, 08:19:59
Post #3

Совки, гулаги, дефициты
***********
Group: Металариец
Posts: 1,910
Releases: 0
From: Беларусь, Минск
On Forums: 16 years 9 months
Thanks: 947 time(s)
Belarus


Картинка классная, а внутри так себе.
Go to the top of the page
  Insert nick Quick quote
+Quote Post
post Nov 18 2023, 16:05:13
Post #4

i listen to black metal
**************
Group: Металариец
Posts: 4,063
Releases: 150
From: Москва
On Forums: 17 years 4 months
Thanks: 2627 time(s)
Russian Federation


простенько,но и умеют играть!!!!
Go to the top of the page
  Insert nick Quick quote
+Quote Post

Reply to this topicStart new topic
1 User(s) are reading this topic (1 Guests and 0 Anonymous Users)
0 Members:

 



- Lo-Fi Version Support form
Copyrights and abuse reports form
Time is now: 22nd April 2024 - 04:55:11