Welcome Guest ( Log In | Register )

Объявления

* gmail.com упорно продолжает считать почту с нас "unsolicited" и отбивает в том числе и письма активации, поэтому просьба использовать альтернативные почтовые ящики.
------------
* gmail.com continues reject all mail from us as "unsolicited" (activation mails too) therefore please use alternate mail servers.

> И неформату есть предел.

Рэп/хип-хоп/шансон/поп удаляются. Для них есть свои порталы.

> Drott - Troll (2023), Progressive/Psychedelic Rock/Post-Rock
post Sep 25 2023, 20:10:28
Post #1

Мегаманьяк
***********
Group: Металариец
Posts: 1,921
Releases: 105
From: Санкт-Петербург
On Forums: 18 years 1 month
Thanks: 5320 time(s)
Russian Federation


(IMG:https://metalarea.org/images/audiocovers/2023_Sep/acov_tid386640_thumb.jpg)

*Artist: Drott
*Album: Troll
*Year: 2023
*Genre: Progressive/Psychedelic Rock/Post-Rock
*Country: Norway (IMG:https://metalarea.org/forum/style_images/flags/Norway.png)
*Format: mp3@CBR320kbps
*Size: 107MB

Tracklist:
01. Troldhaug 03:02
02. Allting 02:49
03. Våkenatt 05:39
04. Til Stein 05:01
05. Det Ser 03:22
06. Solskodde 03:19
07. Mara 01:24
08. Troll 03:23
09. Nattas Blot 04:46
10. Sabbat 04:25
11. Fornjots Born 04:41
12. Grotten 01:55
13. Natt 02:35
******************************
Total playing time: 46:22



Extended info
Arve Isdal (Enslaved)
Ivar Thormodsæter (Ulver)
Matias Monsen
-------------------------------
guest musicians:
Kristian Espedal - vocals
Lindy Fay Hella - vocals
Herbrand Larsen - vocals


Technical info
(IMG:https://metalarea.org/images/spectrogram/2023_Sep/9a344d3818e76485fe03c67ed9c0a793.png)
Input File: 02 - Allting.mp3
Channels : 2
Sample Rate : 44100
Precision : 16-bit
Duration : 00:02:49.34 = 7467806 samples = 12700.4 CDDA sectors
File Size : 6.78M
Bit Rate : 320k
Sample Encoding: MPEG audio (layer I, II or III)
Comments :
Title=Allting
Artist=DROTT
Album=Troll
Tracknumber=02
Year=2023
Genre=Progressive/Psychedelic Rock/Post-Rock



Register


Go to the top of the page
  Insert nick Quick quote
+Quote Post
 
Start new topic
Replies (1 - 4)
post Sep 26 2023, 09:35:49
Post #2

Маньяк
**********
Group: Металариец
Posts: 1,079
Releases: 0
From: Харьков
On Forums: 16 years 4 months
Thanks: 931 time(s)
Ukraine


Хорошо (IMG:style_emoticons/default/20.gif)
Go to the top of the page
  Insert nick Quick quote
+Quote Post
post Sep 26 2023, 12:23:34
Post #3

врач педиатр-патологоанатом
******
Group: Металариец
Posts: 524
Releases: 26
From: Кадыкчан
On Forums: 15 years 1 week
Thanks: 642 time(s)
Russian Federation


И правда, неплохо (IMG:style_emoticons/default/hmm.gif)
Go to the top of the page
  Insert nick Quick quote
+Quote Post
post Sep 27 2023, 08:07:24
Post #4

Маньяк
**********
Group: Металариец
Posts: 1,214
Releases: 0
From: Нижний Новгород
On Forums: 17 years 11 months
Thanks: 483 time(s)
Russian Federation


... на саундтрек очень похоже. Только кина не будет ...
Go to the top of the page
  Insert nick Quick quote
+Quote Post
post Sep 28 2023, 15:18:22
Post #5

Ёлд ХеллоВяйне
Group Icon
Group: V.I.P
Posts: 34,911
Releases: 143
From: Питер
On Forums: 17 years 8 months
Thanks: 22022 time(s)
Russian Federation


Не впечатлило.
Go to the top of the page
  Insert nick Quick quote
+Quote Post

Reply to this topicStart new topic
1 User(s) are reading this topic (1 Guests and 0 Anonymous Users)
0 Members:

 



- Lo-Fi Version Support form
Copyrights and abuse reports form
Time is now: 13th July 2024 - 04:33:53