Welcome Guest ( Log In | Register )

Объявления

* gmail.com упорно продолжает считать почту с нас "unsolicited" и отбивает в том числе и письма активации, поэтому просьба использовать альтернативные почтовые ящики.
------------
* gmail.com continues reject all mail from us as "unsolicited" (activation mails too) therefore please use alternate mail servers.
> Superlynx - 4 10 (2023), Stoner/Psychedelic Doom Metal (D4)
post Sep 29 2023, 17:23:09
Post #1

Правь статус, ####!111
**************
Group: Металариец
Posts: 7,721
Releases: 7061
From: Одесса
On Forums: 16 years 1 month
Thanks: 82391 time(s)
Ukraine


(IMG:https://metalarea.org/images/audiocovers/2023_Sep/acov_tid386808_thumb.jpg)

*Artist: Superlynx
*Album: 4 10
*Year: 2023
*Genre: Stoner/Psychedelic Doom Metal
*Country: Norway (IMG:https://metalarea.org/forum/style_images/flags/Norway.png)
*Format: mp3@CBR320kbps
*Size: 108MB

Tracklist:
1. Into the Sun 06:33
2. Cycle 04:27
3. Heavier than Me 05:00
4. Sphinx 06:50
5. The Unknown 05:14
6. Nothing to Everything 07:41
7. Away 03:28
8. Under Its Spell 06:03
******************************
Total playing time: 45:16



Extended info
Line - up:

Pia Isaksen - Bass, Vocals, Lyrics (Pia Isa)
Ole Teigen - Drums, Lyrics (Midnattsvrede, ex-Morbid Symphony, Loveplanet, ex-Den Saakaldte, ex-Dødheimsgard, ex-Alsvartr (live), ex-Grand Alchemist (live), ex-Invaders (live), ex-Isvind (live), ex-Framferd, ex-Vondthorn)
Daniel Bakken - Guitars (ex-Gate to Khaos, ex-Magenta)



4 10 is the fourth full length album from Superlynx, recorded in 2022 and released in September 2023 as they celebrate their 10th anniversary as a band.

Jamming has always been important to Superlynx in addition to songwriting. This time all the music on the album was created through jamming sessions where the music that came out of it lead the way and turned into these songs.

The focus on 4 10 is imagination, dreams, connection and an open view. Here Superlynx further explores fuzzed out heavy psych, improvisation and the depths of dreams and surrelism.


Technical info
(IMG:https://metalarea.org/images/spectrogram/2023_Sep/5a6f61774c92e39354e34a1c6673af08.png)
Input File: 05 The Unknown.mp3
Channels : 2
Sample Rate : 44100
Precision : 16-bit
Duration : 00:05:14.61 = 13874433 samples = 23596 CDDA sectors
File Size : 12.6M
Bit Rate : 320k
Sample Encoding: MPEG audio (layer I, II or III)
Comments :
Title=The Unknown
Artist=Superlynx
Album=4 10
Tracknumber=5
Year=2023
Genre=Stoner | Psychedelic Doom Metal



Register


Go to the top of the page
  Insert nick Quick quote
+Quote Post
 
Start new topic
Replies (1 - 3)
post Sep 29 2023, 19:54:44
Post #2

Русский
********
Group: Металариец
Posts: 839
Releases: 0
From: Москва
On Forums: 17 years 10 months
Thanks: 265 time(s)
Russian Federation








Thanks:
Go to the top of the page
  Insert nick Quick quote
+Quote Post
post Sep 30 2023, 10:23:15
Post #3

Три Литра
***
Group: Завсегдатай
Posts: 289
Releases: 0
On Forums: 12 years 1 month
Thanks: 7 time(s)
Iran


any FLAC please.... ?
Go to the top of the page
  Insert nick Quick quote
+Quote Post
post Sep 30 2023, 10:32:27
Post #4

Русский
********
Group: Металариец
Posts: 839
Releases: 0
From: Москва
On Forums: 17 years 10 months
Thanks: 265 time(s)
Russian Federation


Flac

Register


Thanks:
Go to the top of the page
  Insert nick Quick quote
+Quote Post

Reply to this topicStart new topic
2 User(s) are reading this topic (2 Guests and 0 Anonymous Users)
0 Members:

 



- Lo-Fi Version Support form
Copyrights and abuse reports form
Time is now: 23rd July 2024 - 22:40:21