Welcome Guest ( Log In | Register )

Объявления

* gmail.com упорно продолжает считать почту с нас "unsolicited" и отбивает в том числе и письма активации, поэтому просьба использовать альтернативные почтовые ящики.
------------
* gmail.com continues reject all mail from us as "unsolicited" (activation mails too) therefore please use alternate mail servers.
> Deathox - Psycollective (2023), Thrash Metal
post Oct 2 2023, 00:26:05
Post #1

Правь статус, ####!111
**************
Group: Металариец
Posts: 35,941
Releases: 26785
From: Г.Харьков
On Forums: 12 years 2 weeks
Thanks: 581047 time(s)
Ukraine


(IMG:https://metalarea.org/images/audiocovers/2023_Oct/acov_tid386881_thumb.jpg)

*Artist: Deathox
*Album: Psycollective
*Year: 2023
*Genre: Thrash Metal
*Country: Italy (IMG:https://metalarea.org/forum/style_images/flags/Italy.png)
*Format: mp3@CBR320kbps
*Size: 126MB

Tracklist:
1. Introduction 01:41
2. Sick Life 04:11
3. Forgettable 04:01
4. Out of Power 04:09
5. Inferno Interno 03:40
6. Drive Yourself 06:14
7. I Cannot See the Stars 03:16
8. Doomed 05:10
9. Scorpion Sting 04:35
10. Listen to Your Guts 03:44
11. Timeless 03:15
12. Enter Your Mind 04:11
13. No Way Out 04:09
14. Outro 01:40
******************************
Total playing time: 53:56


(IMG:https://metalarea.org/images/youtube.png)

Technical info
(IMG:https://metalarea.org/images/spectrogram/2023_Oct/74b5dfc430c661baa7cb55e2d83252b2.png)
Input File: 08 - Doomed.mp3
Channels : 2
Sample Rate : 44100
Precision : 16-bit
Duration : 00:05:10.00 = 13671000 samples = 23250 CDDA sectors
File Size : 12.6M
Bit Rate : 324k
Sample Encoding: MPEG audio (layer I, II or III)
Comments :
Title=Doomed
Artist=䄀渀搀爀攀愀 䜀愀爀漀洀戀漀
Album=Psycollective
Tracknumber=8
Year=2023-10-01
Genre=メタル
Discnumber=1



Register


Go to the top of the page
  Insert nick Quick quote
+Quote Post
 
Start new topic
Replies (1 - 4)
post Oct 3 2023, 15:08:41
Post #2

Три Литра
***
Group: Завсегдатай
Posts: 262
Releases: 0
On Forums: 13 years 20 hours
Thanks: 68 time(s)
Lithuania


Опять человек оркестр ... (IMG:style_emoticons/default/22.gif)
Go to the top of the page
  Insert nick Quick quote
+Quote Post
post Oct 3 2023, 18:07:11
Post #3

Восемь Литров
********
Group: Металариец
Posts: 848
Releases: 0
On Forums: 14 years 10 months
Thanks: 211 time(s)
Ukraine


очень неплохо я вам скажу!!!!!
Go to the top of the page
  Insert nick Quick quote
+Quote Post
post Oct 6 2023, 12:13:50
Post #4

? ? ? ? ? ? ?
********
Group: Металариец
Posts: 833
Releases: 25
On Forums: 17 years 3 months
Thanks: 636 time(s)
Russian Federation


ЦИТАТА(Oldskulthrasher @ Oct 3 2023, 17:08:41) *
Опять человек оркестр ... (IMG:style_emoticons/default/22.gif)

И что? Сам играю, сам пою, сам билеты продаю. Красота! (IMG:style_emoticons/default/crazy.gif)


Thanks:
Go to the top of the page
  Insert nick Quick quote
+Quote Post
post Oct 6 2023, 14:59:05
Post #5

MDM-Thrash Metal
**************
Group: Металариец
Posts: 12,446
Releases: 1741
From: Одесса
On Forums: 16 years 9 months
Thanks: 40435 time(s)
Ukraine


На 2 трека прослушать хватило...
Go to the top of the page
  Insert nick Quick quote
+Quote Post

Reply to this topicStart new topic
2 User(s) are reading this topic (2 Guests and 0 Anonymous Users)
0 Members:

 



- Lo-Fi Version Support form
Copyrights and abuse reports form
Time is now: 26th May 2024 - 09:26:17