Welcome Guest ( Log In | Register )

Объявления

* gmail.com упорно продолжает считать почту с нас "unsolicited" и отбивает в том числе и письма активации, поэтому просьба использовать альтернативные почтовые ящики.
------------
* gmail.com continues reject all mail from us as "unsolicited" (activation mails too) therefore please use alternate mail servers.
> October Tide - The Cancer Pledge (2023), Melodic Doom/Death Metal (D)
post Oct 5 2023, 12:13:00
Post #1

Serial Uploader
Group Icon
Group: V.I.P
Posts: 42,601
Releases: 40667
From: Lithuania
On Forums: 15 years 11 months
Thanks: 521335 time(s)
Lithuania


(IMG:https://metalarea.org/images/audiocovers/2023_Oct/acov_tid387000_thumb.jpg)

*Artist: October Tide
*Album: The Cancer Pledge
*Year: 2023
*Genre: Melodic Doom/Death Metal
*Country: Sweden (IMG:https://metalarea.org/forum/style_images/flags/Sweden.png)
*Format: mp3@CBR320kbps
*Size: 106MB

Tracklist:
1. Peaceful, Quiet, Safe 06:13
2. Tapestry of Our End 05:27
3. Unprecedented Aggression 05:13
4. Blodfattig 06:45
5. The Cancer Pledge 05:09
6. I Know Why I'm Cold 06:22
7. Season of Arson 05:57
8. Breathe the Water 05:01
******************************
Total playing time: 46:07


Preview 2


(IMG:https://metalarea.org/images/youtube.png)

Technical info
(IMG:https://metalarea.org/images/spectrogram/2023_Oct/b801502fc87f5de6cf67d3dbf812da8b.png)
Input File: 02 - Tapestry of our End.mp3
Channels : 2
Sample Rate : 44100
Precision : 16-bit
Duration : 00:05:16.42 = 13953902 samples = 23731.1 CDDA sectors
File Size : 12.9M
Bit Rate : 327k
Sample Encoding: MPEG audio (layer I, II or III)
Comments :
Title=Tapestry of our End
Artist=October Tide
Album=The Cancer Pledge
Tracknumber=2/8
Year=2023
Discnumber=1/1



Register


Go to the top of the page
  Insert nick Quick quote
+Quote Post
2 Pages V  < 1 2  
Start new topic
Replies (30 - 31)
post Mar 9 2024, 13:17:46
Post #31

Правь статус, ####!111
**************
Group: Металариец
Posts: 4,841
Releases: 29
From: Holland
On Forums: 17 years 10 months
Thanks: 1942 time(s)
Netherlands


QUOTE(Bloodn Lord @ Mar 9 2024, 21:08:17) *
Несколько треков с Туннел оф но лайт божественны донельзя: Of Wounds To Come, Our Constellation и Caught in Silence (IMG:style_emoticons/default/19.gif) (IMG:style_emoticons/default/20.gif)

Кот в тишине вообще словно бы была придумана в 90-ые, по канонам каноническим.


Thanks:
Go to the top of the page
  Insert nick Quick quote
+Quote Post
post Mar 10 2024, 14:47:10
Post #32

Чёткий пацан с Ветеранов
Group Icon
Group: V.I.P
Posts: 9,452
Releases: 38
From: Город над вольной Невой
On Forums: 17 years 11 months
Thanks: 4916 time(s)
Russian Federation


ЦИТАТА(Metalass @ 9th March 2024 - 15:17:46) *
Кот в тишине вообще словно бы была придумана в 90-ые, по канонам каноническим.

100% (IMG:style_emoticons/default/9.gif)
Go to the top of the page
  Insert nick Quick quote
+Quote Post

2 Pages V  < 1 2
Reply to this topicStart new topic
2 User(s) are reading this topic (2 Guests and 0 Anonymous Users)
0 Members:

 



- Lo-Fi Version Support form
Copyrights and abuse reports form
Time is now: 28th May 2024 - 03:00:08