Welcome Guest ( Log In | Register )

Объявления

* gmail.com упорно продолжает считать почту с нас "unsolicited" и отбивает в том числе и письма активации, поэтому просьба использовать альтернативные почтовые ящики.
------------
* gmail.com continues reject all mail from us as "unsolicited" (activation mails too) therefore please use alternate mail servers.
> Sühnopfer - Nous Sommes D'hier (2023), Melodic Black Metal (D)
post Oct 5 2023, 14:33:08
Post #1

Serial Uploader
Group Icon
Group: V.I.P
Posts: 42,595
Releases: 40661
From: Lithuania
On Forums: 15 years 11 months
Thanks: 521144 time(s)
Lithuania


(IMG:https://metalarea.org/images/audiocovers/2023_Oct/acov_tid387023_thumb.jpg)

*Artist: Sühnopfer
*Album: Nous Sommes D'hier
*Year: 2023
*Genre: Melodic Black Metal
*Country: France (IMG:https://metalarea.org/forum/style_images/flags/France.png)
*Format: mp3@CBR320kbps
*Size: 127MB

Tracklist:
1. D.S.F.R. 08:05
2. Nous Sommes D'hier 07:07
3. Sermon Sur Le Trépassement 09:47
4. Pays d'Allen 09:57
5. Céron 06:38
6. Derniers Sacrements 08:52
7. Le Bal Des Laze (Michel Polnareff Cover) 04:52
******************************
Total playing time: 55:18

(IMG:https://metalarea.org/images/myspace.png)



(IMG:https://metalarea.org/images/youtube.png)

Technical info
(IMG:https://metalarea.org/images/spectrogram/2023_Oct/07fbcca29bb714529b435a27337a0d7a.png)
Input File: 02 - Nous Sommes d\'Hier.mp3
Channels : 2
Sample Rate : 44100
Precision : 16-bit
Duration : 00:07:17.00 = 19271700 samples = 32775 CDDA sectors
File Size : 17.7M
Bit Rate : 323k
Sample Encoding: MPEG audio (layer I, II or III)
Comments :
Title=Nous Sommes d'Hier
Artist=Suhnopfer
Album=Nous sommes d'Hier
Tracknumber=2
Year=2023-10-06
Genre=Metal
Discnumber=1



Register


Go to the top of the page
  Insert nick Quick quote
+Quote Post
 
Start new topic
Replies (1 - 6)
post Oct 5 2023, 17:09:25
Post #2

Маньяк
**********
Group: Металариец
Posts: 1,043
Releases: 9
From: Беларусь
On Forums: 16 years 11 months
Thanks: 323 time(s)
Belarus


Что за Майкл?
Go to the top of the page
  Insert nick Quick quote
+Quote Post
post Oct 5 2023, 18:01:44
Post #3
BAN
Banned till
Aug 19 2024, 20:16:18




Польнарефф, Мишель
Go to the top of the page
  Insert nick Quick quote
+Quote Post
post Oct 5 2023, 18:23:10
Post #4

Три Литра
***
Group: Завсегдатай
Posts: 262
Releases: 39
On Forums: 2 years 1 month
Thanks: 987 time(s)
Russian Federation


Французы и мелодик блэк-метал вещи не совместимые и этот альбом тому подтверждение. Мелодичность напихана ради мелодичности. Никакой изюминки и запоминающихся пассажей, тупо солянка разной будры, которая не шибко вяжется с риффами и вокалом. Не смог дослушать эту какофонию, хватило четырех треков. (IMG:style_emoticons/default/22.gif)


Thanks:
(1) ZeroIISum,
Go to the top of the page
  Insert nick Quick quote
+Quote Post
post Oct 5 2023, 20:36:36
Post #5

Маньяк
**********
Group: Металариец
Posts: 1,041
Releases: 0
From: Лыткарино
On Forums: 5 years 2 weeks
Thanks: 295 time(s)
Russian Federation


ЦИТАТА(Farfarello @ Oct 5 2023, 22:23:10) *
Французы и мелодик блэк-метал вещи не совместимые и этот альбом тому подтверждение. Мелодичность напихана ради мелодичности. Никакой изюминки и запоминающихся пассажей, тупо солянка разной будры, которая не шибко вяжется с риффами и вокалом. Не смог дослушать эту какофонию, хватило четырех треков. (IMG:style_emoticons/default/22.gif)

У них почему-то почти всегда так.
Go to the top of the page
  Insert nick Quick quote
+Quote Post
post Oct 6 2023, 21:08:52
Post #6

Шесть Литров
******
Group: Металариец
Posts: 584
Releases: 0
On Forums: 15 years 4 months
Thanks: 446 time(s)
Brazil


(IMG:style_emoticons/default/pray.gif) (IMG:style_emoticons/default/pray.gif) (IMG:style_emoticons/default/pray.gif)


Thanks:
Go to the top of the page
  Insert nick Quick quote
+Quote Post
post Oct 16 2023, 03:35:01
Post #7

Маньяк
**********
Group: Металариец
Posts: 1,229
Releases: 0
From: Isla de Margarita, Venezuela
On Forums: 5 years 4 months
Thanks: 391 time(s)
Venezuela


Very good album (IMG:style_emoticons/default/20.gif)
Go to the top of the page
  Insert nick Quick quote
+Quote Post

Reply to this topicStart new topic
2 User(s) are reading this topic (2 Guests and 0 Anonymous Users)
0 Members:

 



- Lo-Fi Version Support form
Copyrights and abuse reports form
Time is now: 24th May 2024 - 20:31:01